[neoHEVC] Ride Your Wave [BD 1080p x265 HEVC AAC] [Dual Audio] [Multi Subs] Kimi to, Nami ni Noretara

Category:
Date:
2020-08-17 11:43 UTC
Submitter:
Seeders:
5
Information:
Leechers:
0
File size:
1.4 GiB
Completed:
921
Info hash:
b84cbd3d22b227cf921060d8a81cf3dc8a5bb271
![](https://i.imgur.com/geEFUkn.png) *Join **[Discord](https://discord.gg/KYKYZUh)** for Current Projects, Encode-Requests and Seed-Request in case of no available seeds.* **Ride Your Wave / Kimi to, Nami ni Noretara** *with `Dual Audio (Jpn\Eng)` and `Multi Subs` in `BD 1080p HEVC`* Reencode of [WUTANG] (x264 AVC FLAC) to (x265 HEVC AAC) with added English subtitles from [Yamenaideoneesama]. *Side Note: I created an additional Signs & Songs track from the English full subtitles from [Yamenaideoneesama] to go with the English audio track.* ![](https://i.imgur.com/4iegWLL.png) **[Trailer](https://www.youtube.com/watch?v=NrdYXAd5Qfg)** ![](https://i.imgur.com/3UxGuWB.png) ![](https://i.imgur.com/ZCtSawZ.png) **[MyAnimeList](https://myanimelist.net/anime/38594/Kimi_to_Nami_ni_Noretara)** --- **Available Subtitles** • English • French • Spanish --- **Patch for Default Language / Subtitles Track** This comes with [English audio] and [English Signs/Songs subtitles] as default tracks. I included an xDelta Patch for those who rather like [Japanese audio] with [English Dialog subtitles] as default. > Simply put all the video files into the Patch folder and run the patch file depending on your OS (for Windows: run '*3.Apply Patch-Windows.bat*'). > Consult '*readme.txt*' if you need help. --- **Synopsis** Entranced by surfing and the sea, Hinako Mukaimizu is a spirited girl who attends college in a coastal city with no consideration for her future career. Her life takes an unexpected turn when a fireworks mishap sets the apartment building she lives in ablaze, where she is saved by a talented firefighter named Minato Hinageshi. Upon meeting, the two quickly become acquainted with one another—Hinako is instantly enamored by Minato's reliable personality and passion for saving others, while Minato is intrigued by surfing and is eager to learn how. As Hinako begins to teach Minato about surfing, the pair eventually fall in love and begin a gentle and devoted relationship. However, while surfing may seem fun and carefree, it can still be a dangerous and unpredictable activity. This is what Hinako learns when a surfing incident completely changes her life, leaving her forced to contemplate her undecided future. In search of her own calling, Hinako begins her journey of self-discovery, keeping Minato by her side as she gradually attempts to find her purpose and ride her own wave. ![](https://i.imgur.com/fOCarDJ.png) --- **Comparison** (avc: source, hevc: encode) *Open links, toggle with mouseclick and check title.* [![](https://i.imgur.com/AHqZvNC.png)](https://slow.pics/c/8fBP6t1V) [![](https://i.imgur.com/AE2BaCA.png)](https://slow.pics/c/hGFqzIPI) [![](https://i.imgur.com/fOeWkmz.png)](https://slow.pics/c/Z9SAIlhY) --- **Source** ?️ Video, Audio and Fra/Spa Subs: [WUTANG] https://nyaa.si/view/1265686 ?️ Eng Subs: [Judas] https://nyaa.si/view/1210698 ? *Subtitles Info: English [Yamenaideoneesama] - Format `ASS`, French\Spanish - Format `PGS`* --- **Media Info** ? [Full Mediainfo incl. Encoder Settings](https://pastebin.com/3VK2fd8x) ``` General Complete name : Ride Your Wave.mkv Format : Matroska Format version : Version 4 File size : 1.36 GiB Duration : 1 h 35 min Overall bit rate : 2 033 kb/s Movie name : Ride Your Wave Encoded date : UTC 2020-07-30 20:19:02 Writing application : mkvmerge v47.0.0 ('Black Flag') 64-bit Writing library : libebml v1.3.10 + libmatroska v1.5.2 / Lavf58.47.100 Attachments : Salsa-Regular.ttf / Aero Matics Regular.TTF / KIDTYPEP.TTF / Linotype Finnegan W01 Medium.ttf Video ID : 1 Format : HEVC Format/Info : High Efficiency Video Coding Format profile : Main 10@L4@High Codec ID : V_MPEGH/ISO/HEVC Duration : 1 h 35 min Bit rate : 1 498 kb/s Width : 1 920 pixels Height : 1 080 pixels Display aspect ratio : 16:9 Frame rate mode : Constant Frame rate : 23.976 (24000/1001) FPS Color space : YUV Chroma subsampling : 4:2:0 Bit depth : 10 bits Bits/(Pixel*Frame) : 0.030 Stream size : 1.00 GiB (74%) Writing library : x265 3.2.1+1-b5c86a64bbbe:[Windows][GCC 9.2.0][64 bit] 10bit Encoding settings : <Check Link Above> Default : Yes Forced : No Color range : Limited Color primaries : BT.709 Transfer characteristics : BT.709 Matrix coefficients : BT.709 Audio #1 ID : 2 Format : AAC LC Format/Info : Advanced Audio Codec Low Complexity Codec ID : A_AAC-2 Duration : 1 h 35 min Bit rate : 241 kb/s Channel(s) : 2 channels Channel layout : L R Sampling rate : 48.0 kHz Frame rate : 46.875 FPS (1024 SPF) Compression mode : Lossy Delay relative to video : -43 ms Stream size : 165 MiB (12%) Title : Stereo - ENG (AAC) Language : English Default : Yes Forced : Yes Audio #2 ID : 3 Format : AAC LC Format/Info : Advanced Audio Codec Low Complexity Codec ID : A_AAC-2 Duration : 1 h 35 min Bit rate : 250 kb/s Channel(s) : 2 channels Channel layout : L R Sampling rate : 48.0 kHz Frame rate : 46.875 FPS (1024 SPF) Compression mode : Lossy Delay relative to video : -43 ms Stream size : 172 MiB (12%) Title : Stereo - JPN (AAC) Language : Japanese Default : No Forced : No Text #1 ID : 4 Format : ASS Codec ID : S_TEXT/ASS Codec ID/Info : Advanced Sub Station Alpha Duration : 1 h 32 min Bit rate : 128 b/s Count of elements : 546 Compression mode : Lossless Stream size : 86.4 KiB (0%) Title : Signs & Songs - ENG (ASS) Language : English Default : Yes Forced : Yes Text #2 ID : 5 Format : ASS Codec ID : S_TEXT/ASS Codec ID/Info : Advanced Sub Station Alpha Duration : 1 h 34 min Bit rate : 216 b/s Count of elements : 1857 Compression mode : Lossless Stream size : 150 KiB (0%) Title : Dialog - ENG (ASS) Language : English Default : No Forced : No Text #3 ID : 6 Format : PGS Muxing mode : zlib Codec ID : S_HDMV/PGS Codec ID/Info : Picture based subtitle format used on BDs/HD-DVDs Duration : 1 h 34 min Bit rate : 33.4 kb/s Count of elements : 2377 Stream size : 22.6 MiB (2%) Title : Dialog - FRA (PGS) Language : French Default : No Forced : No Text #4 ID : 7 Format : PGS Muxing mode : zlib Codec ID : S_HDMV/PGS Codec ID/Info : Picture based subtitle format used on BDs/HD-DVDs Duration : 1 h 34 min Bit rate : 32.4 kb/s Count of elements : 2373 Stream size : 21.9 MiB (2%) Title : Dialog - SPA (PGS) Language : Spanish Default : No Forced : No Menu <Chapters Info Check Link above> ```

File list