[neoHEVC] One Off [BD 1080p x265 HEVC AAC]

Category:
Date:
2020-08-16 11:38 UTC
Submitter:
Seeders:
9
Information:
Leechers:
0
File size:
483.2 MiB
Completed:
577
Info hash:
8d75bfd3b25600ff5a01d1e4f35a144c3536e79d
![](https://i.imgur.com/geEFUkn.png) *Join **[Discord](https://discord.gg/KYKYZUh)** for Current Projects, Encode-Requests and Seed-Request in case of no available seeds.* **One Off** *with `Jpn Dub` and `Eng Subs` in `BD 1080p HEVC`* Reencode of [FFF] (x264 AVC FLAC) to (x265 HEVC AAC). ![](https://i.imgur.com/4iegWLL.png) **[Trailer](https://www.youtube.com/watch?v=yhOgwFCWmMg)** ![](https://i.imgur.com/3UxGuWB.png) ![](https://i.imgur.com/ZCtSawZ.png) **[MyAnimeList](https://myanimelist.net/anime/13283/One_Off)** --- **Synopsis** A slice of life of high school girls in the early summer. Shiozaki Haruno is a 17-year-old girl who loves her motor cycle, HONDA's Giorno. She lives in remote highlands and longs for a vivid life in a city. Encounters with people staying at Haruno's parents' boardinghouse encourage her to step forward to her dream. ![](https://i.imgur.com/hYz8tX5.png) --- **Comparison** (avc: source, hevc: encode) *Open links, toggle with mouseclick and check title.* [![](https://i.imgur.com/3AqwsQL.png)](https://slow.pics/c/znclnFEc) [![](https://i.imgur.com/h2wIyd4.png)](https://slow.pics/c/Nestq3lB) [![](https://i.imgur.com/v6OIdza.png)](https://slow.pics/c/h03idqXu) --- **Source** ?️ Video, Audio and Subs: [FFF] https://nyaa.si/view/427009 ? *Subtitles Info: [FFF] - Format `ASS`* --- **Media Info** ``` General Unique ID : 83345403377801844538641727790317666493 (0x3EB3BDA5AC894FC66C579591610980BD) Complete name : One Off - S01E01 + S01E02.mkv Format : Matroska Format version : Version 4 File size : 238 MiB Duration : 29 min 59 s Overall bit rate : 1 111 kb/s Movie name : One Off - S01E01 + S01E02 Encoded date : UTC 2020-07-25 12:54:42 Writing application : mkvmerge v47.0.0 ('Black Flag') 64-bit Writing library : libebml v1.3.10 + libmatroska v1.5.2 / Lavf58.29.100 Attachments : Hira v2.ttf / Montara-BoldGothic.otf / Montara-BoldItalic.otf / One Off Image.ttf / One Off Mincho R.ttf / One Off Mincho.ttf / One Off Title.ttf / SubSymbol.ttf / VAGRoundedStd-Bold.otf / yryr uzura.ttf / Yuru Yuri sign.ttf / AlexaStd.otf / FOT-HummingStd-v999.ttf Video ID : 1 Format : HEVC Format/Info : High Efficiency Video Coding Format profile : Main 10@L4@High Codec ID : V_MPEGH/ISO/HEVC Duration : 29 min 59 s Bit rate : 897 kb/s Width : 1 920 pixels Height : 1 080 pixels Display aspect ratio : 16:9 Frame rate mode : Constant Frame rate : 23.976 (24000/1001) FPS Color space : YUV Chroma subsampling : 4:2:0 Bit depth : 10 bits Bits/(Pixel*Frame) : 0.018 Stream size : 192 MiB (81%) Writing library : x265 3.2.1+1-b5c86a64bbbe:[Windows][GCC 9.2.0][64 bit] 10bit Encoding settings : cpuid=1111039 / frame-threads=2 / numa-pools=4 / wpp / no-pmode / no-pme / no-psnr / no-ssim / log-level=2 / input-csp=1 / input-res=1920x1080 / interlace=0 / total-frames=0 / level-idc=40 / high-tier=1 / uhd-bd=0 / ref=5 / no-allow-non-conformance / no-repeat-headers / annexb / no-aud / no-hrd / info / hash=0 / no-temporal-layers / open-gop / min-keyint=24 / keyint=240 / gop-lookahead=0 / bframes=8 / b-adapt=2 / b-pyramid / bframe-bias=0 / rc-lookahead=25 / lookahead-slices=4 / scenecut=40 / radl=0 / no-splice / no-intra-refresh / ctu=64 / min-cu-size=8 / rect / no-amp / max-tu-size=32 / tu-inter-depth=1 / tu-intra-depth=1 / limit-tu=0 / rdoq-level=2 / dynamic-rd=0.00 / no-ssim-rd / signhide / no-tskip / nr-intra=0 / nr-inter=0 / no-constrained-intra / strong-intra-smoothing / max-merge=3 / limit-refs=3 / limit-modes / me=3 / subme=3 / merange=57 / temporal-mvp / no-hme / weightp / no-weightb / no-analyze-src-pics / deblock=0:0 / sao / no-sao-non-deblock / rd=4 / selective-sao=4 / no-early-skip / rskip / no-fast-intra / no-tskip-fast / no-cu-lossless / no-b-intra / no-splitrd-skip / rdpenalty=0 / psy-rd=0.00 / psy-rdoq=1.00 / no-rd-refine / no-lossless / cbqpoffs=0 / crqpoffs=0 / rc=crf / crf=21.0 / qcomp=0.60 / qpstep=4 / stats-write=0 / stats-read=0 / vbv-maxrate=30000 / vbv-bufsize=30000 / vbv-init=0.9 / crf-max=0.0 / crf-min=0.0 / ipratio=1.40 / pbratio=1.30 / aq-mode=3 / aq-strength=0.80 / cutree / zone-count=0 / no-strict-cbr / qg-size=32 / no-rc-grain / qpmax=69 / qpmin=0 / no-const-vbv / sar=1 / overscan=0 / videoformat=5 / range=0 / colorprim=1 / transfer=1 / colormatrix=1 / chromaloc=0 / display-window=0 / cll=0,0 / min-luma=0 / max-luma=1023 / log2-max-poc-lsb=8 / vui-timing-info / vui-hrd-info / slices=1 / no-opt-qp-pps / no-opt-ref-list-length-pps / no-multi-pass-opt-rps / scenecut-bias=0.05 / no-opt-cu-delta-qp / no-aq-motion / no-hdr / no-hdr-opt / no-dhdr10-opt / no-idr-recovery-sei / analysis-reuse-level=5 / scale-factor=0 / refine-intra=0 / refine-inter=0 / refine-mv=1 / refine-ctu-distortion=0 / no-limit-sao / ctu-info=0 / no-lowpass-dct / refine-analysis-type=0 / copy-pic=1 / max-ausize-factor=1.0 / no-dynamic-refine / no-single-sei / no-hevc-aq / no-svt / no-field / qp-adaptation-range=1.00 Default : Yes Forced : No Color range : Limited Color primaries : BT.709 Transfer characteristics : BT.709 Matrix coefficients : BT.709 Audio ID : 2 Format : AAC LC Format/Info : Advanced Audio Codec Low Complexity Codec ID : A_AAC-2 Duration : 29 min 59 s Bit rate : 206 kb/s Channel(s) : 2 channels Channel layout : L R Sampling rate : 48.0 kHz Frame rate : 46.875 FPS (1024 SPF) Compression mode : Lossy Delay relative to video : -43 ms Stream size : 44.1 MiB (18%) Title : Stereo - JPN (AAC) Language : Japanese Default : Yes Forced : No Text ID : 3 Format : ASS Codec ID : S_TEXT/ASS Codec ID/Info : Advanced Sub Station Alpha Duration : 29 min 43 s Bit rate : 1 195 b/s Count of elements : 2177 Compression mode : Lossless Stream size : 260 KiB (0%) Title : Dialog - ENG (ASS) Language : English Default : No Forced : No Menu 00:00:00.000 : :Part A 00:00:43.168 : :Opening 00:02:12.382 : :1st Road 00:13:05.910 : :2nd Road 00:28:18.697 : :Ending ```

File list

wasn't this the honda ad?

neoborn (uploader)

User
**@kagu_** Sponsored by Honda it seems yes. Haven't watched it yet unfortunately but the artstyle looks so chill and the characters so cute I just had to put it into my collection =)