[NSBC] If Tomorrow Comes / Ashita ni Nareba / あしたになれば。 2015 [WEBDL] [1080p]

Category:
Date:
2020-08-16 04:05 UTC
Submitter:
Seeders:
1
Information:
TlNCQy50bwo=
Leechers:
2
File size:
6.1 GiB
Completed:
300
Info hash:
be7875f19279fb88b6badb4a81cffa1ac905a305
> ### In case there is no seeder, visit [here](https://nsbc.xyz/?p=288) ![](https://i.ibb.co/5Lg81Qf/Ashita-ni-Nareba.jpg "") ![](https://i.ibb.co/k6QDQQR/If-Tomorrow-Comes-2015-1080p-WEB-DL-DDP2-0-H-264-NSBC-mkv.jpg "") ``` General Unique ID : 33773988760332133517201766134862219196 (0x1968A2358ADA9B22E67125274E3E87BC) Complete name : If Tomorrow Comes 2015 1080p WEB-DL DDP2.0 H.264-NSBC.mkv Format : Matroska Format version : Version 4 File size : 6.05 GiB Duration : 1 h 38 min Overall bit rate : 8 773 kb/s Movie name : If Tomorrow Comes 2015 1080p WEB-DL DDP2.0 H.264-NSBC Encoded by : KenTo | NSBC Encoded date : UTC 2020-08-16 03:44:41 Writing application : mkvmerge v29.0.0 ('Like It Or Not') 64-bit Writing library : libebml v1.3.6 + libmatroska v1.4.9 Copyright : NSBC Comment : KenTo | NSBC WEBSITE : NSBC.to Video ID : 1 Format : AVC Format/Info : Advanced Video Codec Format profile : High 10@L4.1 Format settings : CABAC / 5 Ref Frames Format settings, CABAC : Yes Format settings, Reference frames : 5 frames Codec ID : V_MPEG4/ISO/AVC Duration : 1 h 38 min Bit rate : 8 002 kb/s Width : 1 920 pixels Height : 816 pixels Display aspect ratio : 2.35:1 Frame rate mode : Constant Frame rate : 29.970 (30000/1001) FPS Color space : YUV Chroma subsampling : 4:2:0 Bit depth : 10 bits Scan type : Progressive Bits/(Pixel*Frame) : 0.170 Stream size : 5.52 GiB (91%) Title : [NSBC] Default : Yes Forced : No Color range : Limited Color primaries : BT.709 Transfer characteristics : BT.709 Matrix coefficients : BT.709 Audio #1 ID : 2 Format : E-AC-3 Format/Info : Enhanced AC-3 Commercial name : Dolby Digital Plus Codec ID : A_EAC3 Duration : 1 h 38 min Bit rate mode : Constant Bit rate : 640 kb/s Channel(s) : 2 channels Channel layout : L R Sampling rate : 48.0 kHz Frame rate : 31.250 FPS (1536 SPF) Compression mode : Lossy Stream size : 452 MiB (7%) Title : [NSBC] Language : Japanese Service kind : Complete Main Default : Yes Forced : No Audio #2 ID : 3 Format : AAC LC Format/Info : Advanced Audio Codec Low Complexity Codec ID : A_AAC-2 Duration : 1 h 38 min Bit rate : 128 kb/s Channel(s) : 2 channels Channel layout : L R Sampling rate : 48.0 kHz Frame rate : 46.875 FPS (1024 SPF) Compression mode : Lossy Stream size : 90.3 MiB (1%) Title : [NSBC] Language : Japanese Default : No Forced : No ```

File list

  • If Tomorrow Comes 2015 1080p WEB-DL DDP2.0 H.264-NSBC.mkv (6.1 GiB)
Can you upload the extended version of Oyabaka? Thanks!!!

NOSoba (uploader)

User
already up that
Could you please upload last letter (2020)?
Thanks and does anyone know where I can get subtitles
Can you rip from NHK on Demand? http://asianwiki.com/My_Voice_For_You I want to sub it and the only available raw for this is the one with chinese hardcoded.

NOSoba (uploader)

User
Sorry, i dont have nhk od account so i cant