Medabots.S01.DVDRip.AC3.x264-MW [English Dub]

Category:
Date:
2020-08-15 21:58 UTC
Submitter:
Anonymous
Seeders:
10
Information:
No information.
Leechers:
0
File size:
5.8 GiB
Completed:
487
Info hash:
f157d1cbc3c3610f876946dc762ba8980c1e743e
Thanks to corocoro @ BTN General Unique ID : 220580827922474215640668672653158517748 (0xA5F252796DDE366F4012200916E80BF4) Complete name : Medabots (MW DVD 0480p) (English Dub) S1\[MW]_Medarot_-_01_-_Stung_By_A_Metabee[7183CD51].mkv Format : Matroska Format version : Version 1 File size : 233 MiB Duration : 22 min 17 s Overall bit rate : 1 463 kb/s Encoded date : UTC 2006-09-10 20:23:23 Writing application : VirtualDubMod 1.5.10.2 (build 2540/release) Writing library : libebml-0.7.5 & libmatroska-0.7.7 ErrorDetectionType : Per level 1 Video ID : 1 Format : AVC Format/Info : Advanced Video Codec Format profile : High@L5.1 Format settings : CABAC / 2 Ref Frames Format settings, CABAC : Yes Format settings, Reference frames : 2 frames Codec ID : V_MS/VFW/FOURCC / H264 Duration : 22 min 17 s Bit rate : 1 268 kb/s Width : 720 pixels Height : 480 pixels Display aspect ratio : 3:2 Frame rate mode : Constant Frame rate : 23.976 FPS Color space : YUV Chroma subsampling : 4:2:0 Bit depth : 8 bits Scan type : Progressive Bits/(Pixel*Frame) : 0.153 Stream size : 198 MiB (85%) Writing library : x264 core 50 svn-558 Encoding settings : cabac=1 / ref=1 / deblock=1:0:0 / analyse=0x3:0x133 / me=hex / subme=6 / brdo=1 / mixed_ref=0 / me_range=16 / chroma_me=1 / trellis=1 / 8x8dct=1 / cqm=0 / chroma_qp_offset=0 / slices=1 / nr=4 / decimate=1 / bframes=2 / b_pyramid=0 / b_adapt=1 / b_bias=0 / direct=2 / wpredb=1 / bime=1 / keyint=250 / keyint_min=25 / scenecut=40 / rc=2pass / bitrate=1268 / ratetol=1.0 / rceq='blurCplx^(1-qComp)' / qcomp=0.60 / qpmin=10 / qpmax=51 / qpstep=4 / cplxblur=20.0 / qblur=0.5 / ip_ratio=1.40 / pb_ratio=1.30 Language : English Default : Yes Forced : No Duration_Source : General_Duration Audio ID : 2 Format : AC-3 Format/Info : Audio Coding 3 Commercial name : Dolby Digital Codec ID : A_AC3 Duration : 22 min 17 s Bit rate mode : Constant Bit rate : 192 kb/s Channel(s) : 2 channels Channel layout : L R Sampling rate : 48.0 kHz Frame rate : 31.250 FPS (1536 SPF) Compression mode : Lossy Delay relative to video : -71 ms Stream size : 30.6 MiB (13%) Language : English Service kind : Complete Main Default : Yes Forced : No Duration_Source : General_Duration

File list

  • Medabots (MW DVD 0480p) (English Dub) S1
    • [MW]_Medarot_-_01_-_Stung_By_A_Metabee[7183CD51].mkv (233.2 MiB)
    • [MW]_Medarot_-_02_-_Return_of_the_Screws[06E22CD6].mkv (233.2 MiB)
    • [MW]_Medarot_-_03_-_Running_Scared[FCE09EFA].mkv (233.2 MiB)
    • [MW]_Medarot_-_04_-_The_Legendary_Medafighter[134F7076].mkv (233.1 MiB)
    • [MW]_Medarot_-_05_-_The_Old_Man_and_the_Sea_Monster[F885B896].mkv (233.2 MiB)
    • [MW]_Medarot_-_06_-_The_Gimme_Ghost[59E47EF7].mkv (229.0 MiB)
    • [MW]_Medarot_-_07_-_Cyandog_Bites_Back[B7CAE4D3].mkv (229.0 MiB)
    • [MW]_Medarot_-_08_-_For_Better_For_Worse_Pt_1[0C64E3D7].mkv (229.0 MiB)
    • [MW]_Medarot_-_09_-_For_Better_For_Worse_Pt_2[30560A80].mkv (229.0 MiB)
    • [MW]_Medarot_-_10_-_Mystery_Medabot[FBFA37F4].mkv (229.1 MiB)
    • [MW]_Medarot_-_11_-_Phantom_Renegade_Unmasked[32B7D250].mkv (229.1 MiB)
    • [MW]_Medarot_-_12_-_Ban_All_Medabots[9C87159D].mkv (229.0 MiB)
    • [MW]_Medarot_-_13_-_Meet_Your_Meda-Maker[9DBC0F12].mkv (229.0 MiB)
    • [MW]_Medarot_-_14_-_The_Spy_Who_Robattled_Me[3B67E73C].mkv (229.0 MiB)
    • [MW]_Medarot_-_15_-_I_Dream_of_Hushi[7AD7D464].mkv (229.0 MiB)
    • [MW]_Medarot_-_16_-_Metabee_vs._Rokusho[FCF08A78].mkv (229.0 MiB)
    • [MW]_Medarot_-_17_-_Use_the_Medaforce_(a.k.a._Discovery_of_Medaforce)[5B6718F8].mkv (229.0 MiB)
    • [MW]_Medarot_-_18_-_Fifteen_Minutes_of_Shame[74276D16].mkv (229.0 MiB)
    • [MW]_Medarot_-_19_-_Enter_Rintaro[527CFAFD].mkv (229.0 MiB)
    • [MW]_Medarot_-_20_-_The_Ace_From_Outer_Space[FF2B147D].mkv (229.0 MiB)
    • [MW]_Medarot_-_21_-_Me_and_My_Shadow_Sword[50E57A43].mkv (229.2 MiB)
    • [MW]_Medarot_-_22_-_Dude_Where's_My_Ma_[E1AB1A88].mkv (229.1 MiB)
    • [MW]_Medarot_-_23_-_X-treme_Measures[1EDA5BA6].mkv (229.0 MiB)
    • [MW]_Medarot_-_24_-_The_Road_To_Ruins_(a.k.a._Raiders_of_the_Lost_Medabot)[F021E4D7].mkv (229.0 MiB)
    • [MW]_Medarot_-_25_-_Operatie_Kever_Chaos[5680D0A6].mkv (229.2 MiB)
    • [MW]_Medarot_-_26_-_The_Mother_of_All_Robattles[A4119C0D].mkv (229.0 MiB)
Are these sourced from the US SDBD?