[neoHEVC] Taisho Baseball Girls [BD 1080p x265 HEVC AAC] [Multi Subs] Taishou Yakyuu Musume

Category:
Date:
2020-08-14 17:02 UTC
Submitter:
Seeders:
14
Information:
Leechers:
0
File size:
3.3 GiB
Completed:
782
Info hash:
5439622809d01ee0402a885abce32998be3691f7
![](https://i.imgur.com/geEFUkn.png) *Join **[Discord](https://discord.gg/KYKYZUh)** for Current Projects, Encode-Requests and Seed-Request in case of no available seeds.* **Taisho Baseball Girls / Taishou Yakyuu Musume** *with `Jpn Dub` and `Muti Subs` in `BD 1080p HEVC`* Reencode of (x265 HEVC FLAC) to (x265 HEVC AAC). ![](https://i.imgur.com/4iegWLL.png) **[Trailer](https://www.youtube.com/watch?v=_jQKZzQFzyw)** ![](https://i.imgur.com/3UxGuWB.png) ![](https://i.imgur.com/ZCtSawZ.png) **[MyAnimeList](https://myanimelist.net/anime/5141/Taishou_Yakyuu_Musume)** --- **Available Subtitles** • English • Chinese • Japanese --- **Synopsis** In 1925 (year 14 of the Taisho era) baseball is still quite unknown in Japan and there are only a few male teams. After being told by a baseball player that women should become housewives instead of going to school, 14-year-old Akiko invites her friend Koume to start a baseball team in order to prove him wrong. During this time, when even running was considered too vulgar for women, baseball is known as "what the boys do" and they face many difficulties when having to find enough members, to get permission from their parents and also when learning about the sport itself, which they soon discover to be more difficult than expected. ![](https://i.imgur.com/0hqkTu9.png) --- **Comparison** *Open links, toggle with mouseclick and check title.* [![](https://i.imgur.com/Sd5SUEm.png)](https://slow.pics/c/ad65wnS4) [![](https://i.imgur.com/HN5h4wm.png)](https://slow.pics/c/x7hboAPz) [![](https://i.imgur.com/3ujRvQ9.png)](https://slow.pics/c/Q6jPxhLd) --- **Source** ?️ Video, Audio and Subs: https://nyaa.si/view/844087 ? *Subtitles Info: Format `PGS`* --- **Media Info** ? [Full Mediainfo incl. Encoder Settings](https://pastebin.com/H5kLHsys) ``` General Unique ID : 43608726743298474837301404980089240260 (0x20CEBC3A77D33B68E8B54B2043F4BAC4) Complete name : Taisho Baseball Girls - S01E01.mkv Format : Matroska Format version : Version 4 File size : 298 MiB Duration : 24 min 12 s Overall bit rate : 1 723 kb/s Movie name : Taisho Baseball Girls - S01E01 Encoded date : UTC 2020-07-25 13:12:41 Writing application : mkvmerge v47.0.0 ('Black Flag') 64-bit Writing library : libebml v1.3.10 + libmatroska v1.5.2 / Lavf58.29.100 Video ID : 1 Format : HEVC Format/Info : High Efficiency Video Coding Format profile : Main 10@L4@High Codec ID : V_MPEGH/ISO/HEVC Duration : 24 min 12 s Bit rate : 1 222 kb/s Width : 1 920 pixels Height : 1 080 pixels Display aspect ratio : 16:9 Frame rate mode : Constant Frame rate : 23.976 (24000/1001) FPS Color space : YUV Chroma subsampling : 4:2:0 Bit depth : 10 bits Bits/(Pixel*Frame) : 0.025 Stream size : 212 MiB (71%) Writing library : x265 3.2.1+1-b5c86a64bbbe:[Windows][GCC 9.2.0][64 bit] 10bit Encoding settings : <Check Link Above> Default : Yes Forced : No Color range : Limited Color primaries : BT.709 Transfer characteristics : BT.709 Matrix coefficients : BT.709 Audio ID : 2 Format : AAC LC Format/Info : Advanced Audio Codec Low Complexity Codec ID : A_AAC-2 Duration : 24 min 12 s Bit rate : 119 kb/s Channel(s) : 2 channels Channel layout : L R Sampling rate : 48.0 kHz Frame rate : 46.875 FPS (1024 SPF) Compression mode : Lossy Delay relative to video : -43 ms Stream size : 20.6 MiB (7%) Title : Stereo Language : Japanese Default : Yes Forced : No Text #1 ID : 3 Format : PGS Muxing mode : zlib Codec ID : S_HDMV/PGS Codec ID/Info : Picture based subtitle format used on BDs/HD-DVDs Duration : 24 min 2 s Bit rate : 50.2 kb/s Count of elements : 571 Stream size : 8.63 MiB (3%) Title : Taisho Baseball Girls Language : English Default : No Forced : No Text #2 ID : 4 Format : PGS Muxing mode : zlib Codec ID : S_HDMV/PGS Codec ID/Info : Picture based subtitle format used on BDs/HD-DVDs Duration : 23 min 54 s Bit rate : 136 kb/s Count of elements : 1144 Stream size : 23.3 MiB (8%) Title : 大正野球娘。 Language : Chinese Default : No Forced : No Text #3 ID : 5 Format : PGS Muxing mode : zlib Codec ID : S_HDMV/PGS Codec ID/Info : Picture based subtitle format used on BDs/HD-DVDs Duration : 23 min 54 s Bit rate : 154 kb/s Count of elements : 1144 Stream size : 26.4 MiB (9%) Title : 大正野球娘。 Language : Chinese Default : No Forced : No Text #4 ID : 6 Format : PGS Muxing mode : zlib Codec ID : S_HDMV/PGS Codec ID/Info : Picture based subtitle format used on BDs/HD-DVDs Duration : 24 min 9 s Bit rate : 465 kb/s Count of elements : 2668 Stream size : 80.3 MiB (27%) Title : Taishou Yakyuu Musume Language : Japanese Default : No Forced : No Menu 00:00:00.000 : :Opening 00:01:30.048 : :A Part 00:12:00.011 : :B Part 00:22:09.995 : :Ending 00:23:40.044 : :Preview ```

File list

  • [neoHEVC] Taisho Baseball Girls - Taishou Yakyuu Musume [BD 1080p x265 HEVC AAC] [Multi Subs]
    • Taisho Baseball Girls - S01E01.mkv (298.3 MiB)
    • Taisho Baseball Girls - S01E02.mkv (283.1 MiB)
    • Taisho Baseball Girls - S01E03.mkv (321.3 MiB)
    • Taisho Baseball Girls - S01E04.mkv (267.2 MiB)
    • Taisho Baseball Girls - S01E05.mkv (295.3 MiB)
    • Taisho Baseball Girls - S01E06.mkv (285.3 MiB)
    • Taisho Baseball Girls - S01E07.mkv (261.7 MiB)
    • Taisho Baseball Girls - S01E08.mkv (257.4 MiB)
    • Taisho Baseball Girls - S01E09.mkv (247.1 MiB)
    • Taisho Baseball Girls - S01E10.mkv (282.4 MiB)
    • Taisho Baseball Girls - S01E11.mkv (296.5 MiB)
    • Taisho Baseball Girls - S01E12.mkv (306.3 MiB)
Downloading just to help seed! I am a bit of a sucker for baseball anime and I really enjoyed this one way more than I expected.
I'm seeding this. if anyone needs it, contact me at twttr (same username)