Nekopara OVA 2017 1080p BluRay REMUX FLAC 2.0

Category:
Date:
2020-08-10 00:28 UTC
Submitter:
Seeders:
0
Information:
Leechers:
1
File size:
14.9 GiB
Completed:
105
Info hash:
76f09ade860a4966c69dfca1acd3d4159b50c120
made this remux primarily for myself so it may not be what you want.. the shit tier picture based subs are removed and subs from https://nyaa.si/view/1106779 were added. source disc was https://nyaa.si/view/998541 mediainfo: ``` General Unique ID : 309171554405913339531664748168718727292 (0xE89846846F8F1E54DA43235CB8DE387C) Complete name : Nekopara OVA (2017) 1080p BluRay AVC FLAC 2.0.mkv Format : Matroska Format version : Version 4 File size : 14.9 GiB Duration : 58 min 6 s Overall bit rate mode : Variable Overall bit rate : 36.8 Mb/s Movie name : Nekopara OVA Encoded date : UTC 2020-08-09 16:55:57 Writing application : mkvmerge v48.0.0 ('Fortress Around Your Heart') 64-bit Writing library : libebml v1.4.0 + libmatroska v1.6.0 Video ID : 2 Format : AVC Format/Info : Advanced Video Codec Format profile : High@L4.1 Format settings : CABAC / 4 Ref Frames Format settings, CABAC : Yes Format settings, Reference frames : 4 frames Codec ID : V_MPEG4/ISO/AVC Duration : 58 min 6 s Bit rate mode : Variable Bit rate : 35.4 Mb/s Maximum bit rate : 37.0 Mb/s Width : 1 920 pixels Height : 1 080 pixels Display aspect ratio : 16:9 Frame rate mode : Constant Frame rate : 23.976 (24000/1001) FPS Color space : YUV Chroma subsampling : 4:2:0 Bit depth : 8 bits Scan type : Progressive Bits/(Pixel*Frame) : 0.712 Stream size : 14.4 GiB (96%) Language : Japanese Default : Yes Forced : No Audio ID : 1 Format : FLAC Format/Info : Free Lossless Audio Codec Codec ID : A_FLAC Duration : 58 min 6 s Bit rate mode : Variable Bit rate : 1 416 kb/s Channel(s) : 2 channels Channel layout : L R Sampling rate : 48.0 kHz Frame rate : 11.719 FPS (4096 SPF) Bit depth : 24 bits Compression mode : Lossless Stream size : 589 MiB (4%) Writing library : libFLAC 1.3.3 (UTC 2019-08-04) Language : Japanese Default : Yes Forced : No Text ID : 3 Format : ASS Codec ID : S_TEXT/ASS Codec ID/Info : Advanced Sub Station Alpha Duration : 54 min 0 s Bit rate : 130 b/s Count of elements : 826 Compression mode : Lossless Stream size : 51.7 KiB (0%) Title : full.eng SheetSubs (Based on Official BD with half-assed TS) Language : English Default : Yes Forced : No Menu 00:00:00.000 : en:Chapter 01 00:00:34.076 : en:Chapter 02 00:02:04.166 : en:Chapter 03 00:21:34.293 : en:Chapter 04 00:39:28.616 : en:Chapter 05 00:52:25.559 : en:Chapter 06 00:54:14.209 : en:Chapter 07 ```

File list

  • Nekopara OVA (2017) 1080p BluRay AVC FLAC 2.0.mkv (14.9 GiB)
Thank you for this. What software did you use to encode this? I really hope it wasn't **[HandBrake.](https://handbrake.fr/)** I have no idea what you did with the video. Did you use denoising, debanding, anti-aliasing, or anything for that matter? This is what a **[detailed description looks like.](https://nyaa.si/view/1270090)**

valid (uploader)

User
i thought that the remux part should tell enough about that.. afaik it means untouched video from the bluray. didnt see any remux here yet so i decided to share this
calling it a remux is only clear to those of us with a working brain
Ingenious subs indeed
**@CheekyKoala, @herkz** Lol. I was sleep deprived and didn't even read the title like a dumbass. We all have our moments of utter stupidity.
thanks how about OVA extra ?

valid (uploader)

User
i believe that there is no bluray of that.. at least anidb says that its web only. best you can get of it is https://nyaa.si/view/1074062