[NSBC] Hanzawa Naoki 2020 Season 2 E04 [HDTV] [1080i]

Category:
Date:
2020-08-09 15:47 UTC
Submitter:
Seeders:
24
Information:
TlNCQy50bwo=
Leechers:
3
File size:
5.8 GiB
Completed:
4538
Info hash:
22878c1e99998d3623310a9ffd0e2878999ede9f
> ### In case there is no seeder, visit [here](https://nsbc.xyz/?p=53) ![](https://img.topddl.net/images/2020/07/19/poster.jpg "'") ![](https://img.topddl.net/images/2020/08/09/Hanzawa-Naoki-2020-S02E04-1080i-HDTV-AAC-MPEG2-NSBC.mkv.jpg "'") ``` General Unique ID : 216580823181097759836058342674825022536 (0xA2EFF303A6836BBEB325C40600210C48) Complete name : Hanzawa Naoki 2020 S02E04 1080i HDTV AAC MPEG2-NSBC.mkv Format : Matroska Format version : Version 4 File size : 5.76 GiB Duration : 1 h 0 min Overall bit rate mode : Variable Overall bit rate : 13.7 Mb/s Movie name : Hanzawa Naoki 2020 S02E04 1080i HDTV AAC MPEG2-NSBC Encoded date : UTC 2020-08-09 15:39:57 Writing application : mkvmerge v29.0.0 ('Like It Or Not') 64-bit Writing library : libebml v1.3.6 + libmatroska v1.4.9 Video ID : 1 Format : MPEG Video Format version : Version 2 Format profile : Main@High Format settings : CustomMatrix / BVOP Format settings, BVOP : Yes Format settings, Matrix : Custom Format settings, GOP : M=3, N=15 Format settings, picture structure : Frame Codec ID : V_MPEG2 Codec ID/Info : MPEG 1 or 2 Video Duration : 1 h 0 min Bit rate mode : Variable Bit rate : 13.5 Mb/s Maximum bit rate : 20.0 Mb/s Width : 1 440 pixels Height : 1 080 pixels Display aspect ratio : 16:9 Frame rate mode : Constant Frame rate : 29.970 (30000/1001) FPS Color space : YUV Chroma subsampling : 4:2:0 Bit depth : 8 bits Scan type : Interlaced Scan order : Top Field First Compression mode : Lossy Bits/(Pixel*Frame) : 0.290 Time code of first frame : 00:00:00:00 Time code source : Group of pictures header GOP, Open/Closed : Open Stream size : 5.68 GiB (99%) Default : Yes Forced : No Color primaries : BT.709 Transfer characteristics : BT.709 Matrix coefficients : BT.709 Audio ID : 2 Format : AAC LC Format/Info : Advanced Audio Codec Low Complexity Codec ID : A_AAC-2 Duration : 1 h 0 min Bit rate : 192 kb/s Channel(s) : 2 channels Channel layout : L R Sampling rate : 48.0 kHz Frame rate : 46.875 FPS (1024 SPF) Compression mode : Lossy Delay relative to video : -9 ms Stream size : 81.1 MiB (1%) Default : Yes Forced : No ```

File list

  • Hanzawa Naoki 2020 S02E04 1080i HDTV AAC MPEG2-NSBC.mkv (5.8 GiB)
@NOSoba: Thanks. Also lucky there's a new blog! :) Some things to note: * it's not possible to comment on your blog w/o logging in (but one can't create a new account either) * the RSS feed stopped working… was working until yesterday. :-I Can you fix this? Else it's hard to impossible to keep up to date. * Will you updating/ reupload the short specials/ chain-stories for "Watashi no Kaseifu Nagisa-san" again? Thanks, man! :)
ありがとうございました。

NOSoba (uploader)

User
> it’s not possible to comment on your blog w/o logging in (but one can’t create a new account either) I've tried to create a new wordpress account and it works fine. > the RSS feed stopped working… was working until yesterday. :-I Can you fix this? Else it’s hard to impossible to keep up to date. Rss feeds is disable for security reason. > Will you updating/ reupload the short specials/ chain-stories for “Watashi no Kaseifu Nagisa-san” again? Sorry i forgot, will do this once i got home.
Thank you for the uploads! Will you continue uploading Arashi's Diary Voyage on your blog?
@NOSoba: Why would an RSS feed be a security risk? I don't get that. Disabling "Right Click" is pointless too, IMHO. You just make your site harder to use. You do not "protect" anything that way.
thanks!

NOSoba (uploader)

User
https://nsbc.xyz/?feed=rss2
@NOSoba: thanks. :)