[neoHEVC] One Week Friends [BD 1080p x265 HEVC AAC] [Dual Audio Jpn-Ger] [Eng-Ger Subs] Isshuukan Friends

Category:
Date:
2020-08-09 15:42 UTC
Submitter:
Seeders:
11
Information:
Leechers:
8
File size:
2.0 GiB
Completed:
1614
Info hash:
7347036c3c0385a4bef9ee36d109968d337f8a21
![](https://i.imgur.com/geEFUkn.png) *Join **[Discord](https://discord.gg/KYKYZUh)** for Current Projects, Encode-Requests and Seed-Request in case of no available seeds.* **One Week Friends / Isshuukan Friends** *with `Dual Audio (Jpn\Ger)` and `Eng\Ger Subs` in `BD 1080p HEVC`* Reencode of [FFF] (x264 AVC FLAC) to (x265 HEVC AAC) with added German audio tracks (AC3) and German subtitles from [STARS]. ![](https://i.imgur.com/4iegWLL.png) **[Trailer](https://www.youtube.com/watch?v=psjonQjQ-DY)** ![](https://i.imgur.com/3UxGuWB.png) ![](https://i.imgur.com/ZCtSawZ.png) **[MyAnimeList](https://myanimelist.net/anime/21327/Isshuukan_Friends)** --- **Patch for Default Language / Subtitles Track** This comes with [Japanese audio] and [English subtitles] as default tracks. I included an xDelta Patch for those who rather like [German audio] with [German Signs & Songs subtitles] as default. > Simply put all the video files into the Patch folder and run the patch file depending on your OS (for Windows: run '*3.Apply Patch-Windows.bat*'). > Consult '*readme.txt*' if you need help. --- **Synopsis** Sixteen-year-old Yuuki Hase finally finds the courage to speak to his crush and ask her if she wants to become friends. The object of his affection, Kaori Fujimiya, is a quiet and reserved girl who cuts herself off from everyone and does not spare him the same blunt rejection she gives everybody else. Some time after, Yuuki finds her eating lunch on the roof where she secludes herself during break. He decides to start meeting with Kaori every day in the hopes of beginning to understand her better. The more time they spend together, the more she begins to open up to him. However, nearing the end of the week, she starts to push him away once more. It is then revealed to him the reason for Kaori's cold front: at the end of the week, her memories of those close to her, excluding her family, are forgotten, as they are reset every Monday. The result of an accident in middle school, the once popular and kind Kaori is now unable to make friends in fear of hurting the people dear to her. Determined to become more than just one week friends, Yuuki asks her the exact same question each Monday: "Would you like to be friends?" Because he knows that deep down, Kaori wishes for that more than anything. ![](https://i.imgur.com/OBfZ3vQ.png) --- **Comparison** (avc: source, hevc: encode) *Open links, toggle with mouseclick and check title.* [![](https://i.imgur.com/EUg6Ebg.png)](https://slow.pics/c/O0oew4tL) [![](https://i.imgur.com/eL3F3Cw.png)](https://slow.pics/c/O6pspSa8) [![](https://i.imgur.com/klna8WH.png)](https://slow.pics/c/aDmzCWli) --- **Source** ?️ Video, Jpn Audio and Eng Subs: [FFF] https://nyaa.si/view/825897 ?️ Ger Audio and Ger Subs: [STARS] https://www.anime-loads.org/media/isshuukan-friends ? *Subtitles Info: Eng [Vivid] - Format `ASS`, Ger - Format `SRT`* --- **Media Info** ? [Full Mediainfo incl. Encoder Settings](https://pastebin.com/KtUhwr0V) ``` General Unique ID : 5366682248735643984935041015757926655 (0x40995DD117E9C2A7F6E584F9DEBF0FF) Complete name : One Week Friends - S01E01.mkv Format : Matroska Format version : Version 4 File size : 179 MiB Duration : 23 min 40 s Overall bit rate : 1 060 kb/s Movie name : One Week Friends - S01E01 Encoded date : UTC 2020-07-25 17:11:07 Writing application : mkvmerge v47.0.0 ('Black Flag') 64-bit Writing library : libebml v1.3.10 + libmatroska v1.5.2 / Lavf58.47.100 Attachments : DELICIOUS-BOLDITALIC.OTF / JAYNEPRINT-HAND.TTF / KYLESHAND-PLAIN.TTF / NEWBASKERVILLE.TTF / PENCILPETEFONT.OTF / ROSANGOBOLD.TTF / SWISS721BT-HEAVY.TTF / SWISS721BT-MEDIUM.TTF / TENA.TTF / VERONICASHAND-PLAIN.TTF / WEBLYSLEEKUISEMILIGHT.TTF / AMIENNE.TTF / CHANGETOMORROWTODAY.TTF / DELICIOUS-BOLD.OTF Video ID : 1 Format : HEVC Format/Info : High Efficiency Video Coding Format profile : Main 10@L4@High Codec ID : V_MPEGH/ISO/HEVC Duration : 23 min 40 s Bit rate : 739 kb/s Width : 1 920 pixels Height : 1 080 pixels Display aspect ratio : 16:9 Frame rate mode : Constant Frame rate : 23.976 (24000/1001) FPS Color space : YUV Chroma subsampling : 4:2:0 Bit depth : 10 bits Bits/(Pixel*Frame) : 0.015 Stream size : 125 MiB (70%) Writing library : x265 3.2.1+1-b5c86a64bbbe:[Windows][GCC 9.2.0][64 bit] 10bit Encoding settings : <Check Link Above> Default : Yes Forced : No Color range : Limited Color primaries : BT.709 Transfer characteristics : BT.709 Matrix coefficients : BT.709 Audio #1 ID : 2 Format : AAC LC Format/Info : Advanced Audio Codec Low Complexity Codec ID : A_AAC-2 Duration : 23 min 40 s Bit rate : 117 kb/s Channel(s) : 2 channels Channel layout : L R Sampling rate : 48.0 kHz Frame rate : 46.875 FPS (1024 SPF) Compression mode : Lossy Delay relative to video : -43 ms Stream size : 19.9 MiB (11%) Title : Stereo - JPN (AAC) Language : Japanese Default : Yes Forced : Yes Audio #2 ID : 3 Format : AC-3 Format/Info : Audio Coding 3 Commercial name : Dolby Digital Codec ID : A_AC3 Duration : 23 min 40 s Bit rate mode : Constant Bit rate : 192 kb/s Channel(s) : 2 channels Channel layout : L R Sampling rate : 48.0 kHz Frame rate : 31.250 FPS (1536 SPF) Compression mode : Lossy Delay relative to video : -43 ms Stream size : 32.5 MiB (18%) Title : Stereo - GER (AC3) Language : German Service kind : Complete Main Default : No Forced : No Text #1 ID : 4 Format : ASS Codec ID : S_TEXT/ASS Codec ID/Info : Advanced Sub Station Alpha Duration : 23 min 32 s Bit rate : 759 b/s Count of elements : 1271 Compression mode : Lossless Stream size : 131 KiB (0%) Title : Dialog - ENG (ASS) Language : English Default : Yes Forced : Yes Text #2 ID : 5 Format : UTF-8 Codec ID : S_TEXT/UTF8 Codec ID/Info : UTF-8 Plain Text Duration : 22 min 33 s Bit rate : 5 b/s Count of elements : 40 Stream size : 884 Bytes (0%) Title : Signs & Songs - GER (SRT) Language : German Default : No Forced : No Text #3 ID : 6 Format : UTF-8 Codec ID : S_TEXT/UTF8 Codec ID/Info : UTF-8 Plain Text Duration : 23 min 32 s Bit rate : 57 b/s Count of elements : 368 Stream size : 9.84 KiB (0%) Title : Dialog - GER (SRT) Language : German Default : No Forced : No Menu 00:00:00.000 : :Prologue 00:01:28.005 : :Opening 00:02:58.053 : :Part A 00:12:40.176 : :Eyecatch 00:12:46.099 : :Part B 00:22:01.904 : :Ending 00:23:26.155 : :Preview ```

File list

  • [neoHEVC] One Week Friends - Isshuukan Friends [BD 1080p x265 HEVC AAC] [Dual Audio Jpn-Ger] [Eng-Ger Subs]
    • Language Swap Patch
      • vcdiff
        • One Week Friends - S01E01.mkv.vcdiff (84.3 KiB)
        • One Week Friends - S01E02.mkv.vcdiff (84.0 KiB)
        • One Week Friends - S01E03.mkv.vcdiff (82.0 KiB)
        • One Week Friends - S01E04.mkv.vcdiff (84.3 KiB)
        • One Week Friends - S01E05.mkv.vcdiff (82.6 KiB)
        • One Week Friends - S01E06.mkv.vcdiff (81.5 KiB)
        • One Week Friends - S01E07.mkv.vcdiff (81.4 KiB)
        • One Week Friends - S01E08.mkv.vcdiff (87.2 KiB)
        • One Week Friends - S01E09.mkv.vcdiff (80.1 KiB)
        • One Week Friends - S01E10.mkv.vcdiff (82.4 KiB)
        • One Week Friends - S01E11.mkv.vcdiff (80.3 KiB)
        • One Week Friends - S01E12.mkv.vcdiff (81.8 KiB)
      • 1.Readme.txt (1.1 KiB)
      • 2.Changelog.txt (0 Bytes)
      • 3.Apply Patch-Linux.sh (2.1 KiB)
      • 3.Apply Patch-Mac.command (2.1 KiB)
      • 3.Apply Patch-Windows.bat (2.3 KiB)
      • xdelta-3.1.0-x86_64.exe (609.8 KiB)
      • xdelta3 (838.8 KiB)
      • xdelta3_mac (144.7 KiB)
    • One Week Friends - S01E01.mkv (179.4 MiB)
    • One Week Friends - S01E02.mkv (171.4 MiB)
    • One Week Friends - S01E03.mkv (163.6 MiB)
    • One Week Friends - S01E04.mkv (191.0 MiB)
    • One Week Friends - S01E05.mkv (172.7 MiB)
    • One Week Friends - S01E06.mkv (152.7 MiB)
    • One Week Friends - S01E07.mkv (155.3 MiB)
    • One Week Friends - S01E08.mkv (214.8 MiB)
    • One Week Friends - S01E09.mkv (136.2 MiB)
    • One Week Friends - S01E10.mkv (163.6 MiB)
    • One Week Friends - S01E11.mkv (144.3 MiB)
    • One Week Friends - S01E12.mkv (187.5 MiB)
what's with the low overall bitrate? seems too extreme

neoborn (uploader)

User
**@kagu_** I was surprised too how small this one got and though oh no this must look terrible now. Numbers aren't good indicators all the time though and it didn't look the way I feared. Check the comparison shots or download one episode and see for yourself if this is up to your standards.
Du hättest den Moozzi2-Rip nehmen sollen. Das standardmäßige unscharfe Matsch-Bild ist alles andere als ansehnlich und ist schon im Jahr 2014 fernab jeglicher Animationstechnik gewesen.