[neoHEVC] B the Beginning [BD 1080p x265 HEVC AAC] [Dual Audio]

Category:
Date:
2020-08-08 13:33 UTC
Submitter:
Seeders:
1
Information:
Leechers:
0
File size:
3.2 GiB
Completed:
912
Info hash:
ad5ec9c0a8394fd907d57fc2b4bc0a675cfaa046
![](https://i.imgur.com/geEFUkn.png) *Join **[Discord](https://discord.gg/KYKYZUh)** for Current Projects, Encode-Requests and Seed-Request in case of no available seeds.* **B: The Beginning** *with `Dual Audio (Jpn/Eng)` and `Eng Subs` in `BD 1080p HEVC`* Reencode of [GSK_kun] (x264 AVC FLAC) to (x265 HEVC AAC). ![](https://i.imgur.com/4iegWLL.png) **[Trailer](https://www.youtube.com/watch?v=FMxaCRLuRlQ)** ![](https://i.imgur.com/3UxGuWB.png) ![](https://i.imgur.com/ZCtSawZ.png) **[MyAnimeList](https://myanimelist.net/anime/32827/B__The_Beginning)** --- **Patch for Default Language / Subtitles Track** This comes with [English audio] and [Signs/Songs subtitles] as default tracks. I included an xDelta Patch for those who rather like [Japanese audio] with [Dialog subtitles] as default. > Simply put all the video files into the Patch folder and run the patch file depending on your OS (for Windows: run '*3.Apply Patch-Windows.bat*'). > Consult '*readme.txt*' if you need help. --- **Synopsis** On the islands of Cremona, a vigilante runs amok. Celebrated by some and hunted by others, the notorious "Killer B" takes justice into his own hands, armed with a sharp blade and superhuman abilities. Unable to apprehend this renegade, the Royal Investigation Service (RIS) calls upon the expertise of Keith Flick, a seasoned, yet eccentric detective who was relegated to the Archives Department following a personal loss. As crimes in Cremona begin to escalate, from stealthy executions of wrongdoers to sophisticated strikes on public figures, it soon becomes clear that there is more than one person responsible. With the help of his impulsive sidekick Lily Hoshina, and unexpected aid from the elusive Killer B himself, Keith begins to unravel plots involving secret organizations, domestic terrorism, and human experiments. When the involvement of the RIS extends beyond the scope of justice, the extent of the government's corruption—as well as the trustworthiness of close allies—are thrown into question. ![](https://i.imgur.com/pWep7KP.png) --- **Comparison** (avc: source, hevc: encode) *Open links, toggle with mouseclick and check title.* [![](https://i.imgur.com/GPBOOzU.png)](https://slow.pics/c/NNEimVnB) [![](https://i.imgur.com/cMXJyoY.png)](https://slow.pics/c/HyMsGIuz) [![](https://i.imgur.com/imz5Ei5.png)](https://slow.pics/c/jJ35NuzV) --- **Source** ?️ Video, Audio and Subs: [GSK_kun] https://nyaa.si/view/1145222 ? *Subtitles Info: Netflix edit [GSK_kun] - Format `ASS`* --- **Media Info** ? [Full Mediainfo incl. Encoder Settings](https://pastebin.com/gN09cvVm) ``` General Unique ID : 153743481611508770133237116090198604072 (0x73A9EAE136D2F88BE1BB08F2EF053928) Complete name : B the Beginning - S01E01.mkv Format : Matroska Format version : Version 4 File size : 331 MiB Duration : 26 min 8 s Overall bit rate : 1 769 kb/s Movie name : B the Beginning - S01E01 Encoded date : UTC 2020-07-25 13:39:03 Writing application : mkvmerge v47.0.0 ('Black Flag') 64-bit Writing library : libebml v1.3.10 + libmatroska v1.5.2 / Lavf58.29.100 Attachments : Codec-Cold-Thin-trial.ttf / Complete in Him.TTF / Louis George Cafe.ttf / AddisAbaba.ttf / Amaranth-Regular.otf / candara.ttf Video ID : 1 Format : HEVC Format/Info : High Efficiency Video Coding Format profile : Main 10@L4@High Codec ID : V_MPEGH/ISO/HEVC Duration : 26 min 7 s Bit rate : 1 548 kb/s Width : 1 920 pixels Height : 1 080 pixels Display aspect ratio : 16:9 Frame rate mode : Constant Frame rate : 23.976 (24000/1001) FPS Color space : YUV Chroma subsampling : 4:2:0 Bit depth : 10 bits Bits/(Pixel*Frame) : 0.031 Stream size : 289 MiB (87%) Writing library : x265 3.2.1+1-b5c86a64bbbe:[Windows][GCC 9.2.0][64 bit] 10bit Encoding settings : <Check Link Above> Default : Yes Forced : No Color range : Limited Color primaries : BT.709 Transfer characteristics : BT.709 Matrix coefficients : BT.709 Audio #1 ID : 2 Format : AAC LC Format/Info : Advanced Audio Codec Low Complexity Codec ID : A_AAC-2 Duration : 26 min 1 s Bit rate : 103 kb/s Channel(s) : 2 channels Channel layout : L R Sampling rate : 48.0 kHz Frame rate : 46.875 FPS (1024 SPF) Compression mode : Lossy Delay relative to video : 7 s 57 ms Stream size : 19.2 MiB (6%) Title : Stereo - ENG (AAC) Language : English Default : Yes Forced : Yes Audio #2 ID : 3 Format : AAC LC Format/Info : Advanced Audio Codec Low Complexity Codec ID : A_AAC-2 Duration : 26 min 7 s Bit rate : 113 kb/s Channel(s) : 2 channels Channel layout : L R Sampling rate : 48.0 kHz Frame rate : 46.875 FPS (1024 SPF) Compression mode : Lossy Delay relative to video : -43 ms Stream size : 21.1 MiB (6%) Title : Stereo - JPN (AAC) Language : Japanese Default : No Forced : No Text #1 ID : 4 Format : ASS Codec ID : S_TEXT/ASS Codec ID/Info : Advanced Sub Station Alpha Duration : 25 min 43 s Bit rate : 77 b/s Count of elements : 108 Compression mode : Lossless Stream size : 14.6 KiB (0%) Title : Signs & Songs - ENG (ASS) Language : English Default : Yes Forced : Yes Text #2 ID : 5 Format : ASS Codec ID : S_TEXT/ASS Codec ID/Info : Advanced Sub Station Alpha Duration : 25 min 43 s Bit rate : 162 b/s Count of elements : 421 Compression mode : Lossless Stream size : 30.6 KiB (0%) Title : Dialog - ENG (ASS) Language : English Default : No Forced : No ```

File list

  • [neoHEVC] B the Beginning [BD 1080p x265 HEVC AAC] [Dual Audio]
    • Language Swap Patch
      • vcdiff
        • B the Beginning - S01E01.mkv.vcdiff (109.4 KiB)
        • B the Beginning - S01E02.mkv.vcdiff (101.2 KiB)
        • B the Beginning - S01E03.mkv.vcdiff (104.3 KiB)
        • B the Beginning - S01E04.mkv.vcdiff (99.7 KiB)
        • B the Beginning - S01E05.mkv.vcdiff (101.8 KiB)
        • B the Beginning - S01E06.mkv.vcdiff (100.2 KiB)
        • B the Beginning - S01E07.mkv.vcdiff (100.1 KiB)
        • B the Beginning - S01E08.mkv.vcdiff (108.5 KiB)
        • B the Beginning - S01E09.mkv.vcdiff (104.6 KiB)
        • B the Beginning - S01E10.mkv.vcdiff (109.6 KiB)
        • B the Beginning - S01E11.mkv.vcdiff (102.7 KiB)
        • B the Beginning - S01E12.mkv.vcdiff (110.9 KiB)
      • 1.Readme.txt (1.1 KiB)
      • 2.Changelog.txt (0 Bytes)
      • 3.Apply Patch-Linux.sh (2.0 KiB)
      • 3.Apply Patch-Mac.command (2.1 KiB)
      • 3.Apply Patch-Windows.bat (2.3 KiB)
      • xdelta-3.1.0-x86_64.exe (609.8 KiB)
      • xdelta3 (838.8 KiB)
      • xdelta3_mac (144.7 KiB)
    • B the Beginning - S01E01.mkv (330.9 MiB)
    • B the Beginning - S01E02.mkv (233.7 MiB)
    • B the Beginning - S01E03.mkv (337.6 MiB)
    • B the Beginning - S01E04.mkv (264.6 MiB)
    • B the Beginning - S01E05.mkv (220.0 MiB)
    • B the Beginning - S01E06.mkv (265.4 MiB)
    • B the Beginning - S01E07.mkv (213.9 MiB)
    • B the Beginning - S01E08.mkv (265.2 MiB)
    • B the Beginning - S01E09.mkv (251.7 MiB)
    • B the Beginning - S01E10.mkv (302.6 MiB)
    • B the Beginning - S01E11.mkv (293.3 MiB)
    • B the Beginning - S01E12.mkv (274.7 MiB)
I'm surprised this actually shrank, I didn't want to touch it because it's kinda grainy.
Thanks! Can you do the same with A.I.C.O. Incarnation?

neoborn (uploader)

User
**@geha714** I only did this one because it got requested and I could do a simple reencode of another BD Dual Audio release without too much more work. Might check A.I.C.O. out. If I'm doing my own version then probably with one of the BD releases with netflix added dubs. I check and see how much work it is to synchronize those external audio and sub tracks to the BD video (ReinForce). If it's hours and hours of work I probably won't do it since the show doesn't look like something I'm into all that much. If there was already a bigger AVC BD release with dubs in I could have done the same I did with B but nobody did that yet unfortunately. Best not expect anything and be pleasantly surprised when a wild A.I.C.O. appears out of nowhere =)
Thank you very much