[Mysteria] Hyouka+OVA [BD 1080p] (HEVC x265 10-bit Opus)

Category:
Date:
2020-08-05 13:42 UTC
Submitter:
Seeders:
5
File size:
35.1 GiB
Completed:
158
Info hash:
618ccdb243e2a23419ae90f66b33de845c59d0be
![alt text](https://cdn.myanimelist.net/images/anime/13/50521l.jpg) **Synopsis:** Energy-conservative high school student Houtarou Oreki ends up with more than he bargained for when he signs up for the Classics Club at his sister's behest—especially when he realizes how deep-rooted the club's history really is. Begrudgingly, Oreki is dragged into an investigation concerning the 45-year-old mystery that surrounds the club room. Accompanied by his fellow club members, the knowledgeable Satoshi Fukube, the stern but benign Mayaka Ibara, and the ever-curious Eru Chitanda, Oreki must combat deadlines and lack of information with resourcefulness and hidden talent, in order to not only find the truth buried beneath the dust of works created years before them, but of other small side cases as well. Based on the award-winning Koten-bu light novel series, and directed by Yasuhiro Takemoto of Suzumiya Haruhi no Shoushitsu, Hyouka shows that normal life can be full of small mysteries, be it family history, a student film, or even the withered flowers that make up a ghost story. Description: Title: Hyouka *Original Source: **Beatrice-Raws (https://nyaa.si/view/1253244)** *Video Format: x265 HEVC 10bit mkv *Audio Codec: Japanese 2.0 Opus VBR (256 kbps) *Duration: 25 minutes *Subtitle Source: **Coalgirls** *Resolution/Quality: 1920x1080 or 1080p HD *Genre: : Mystery, School, Slice of Life *Age Rating: PG-13 **Screens:** ![alt text](https://i.imgur.com/SOouUcm.png) ![alt text](https://i.imgur.com/xUwazvG.png) ![alt text](https://i.imgur.com/WkpqtfH.png) **Media Info:** ``` General Unique ID : 3093149658326895048201705832656813532 (0x253B80D6E65078092775F2822C23DDC) Complete name : C:\Users\Mysteria\Downloads\[Mysteria] Hyouka [BD 1080p] (HEVC x265 10-bit Opus)\Season 1\[Mysteria] Hyouka - 01.mkv Format : Matroska Format version : Version 4 File size : 1.63 GiB Duration : 27 min 13 s Overall bit rate : 8 566 kb/s Movie name : [Mysteria] Hyouka - 01 Encoded date : UTC 2020-08-05 02:59:55 Writing application : mkvmerge v49.0.0 ('Sick Of Losing Soulmates') 64-bit Writing library : libebml v1.4.0 + libmatroska v1.6.1 Attachments : A-OTF-RyuminStd-Heavy-KO.otf / ANA-ONEIROPARMENI82.TTF / BAKESBR.TTF / brushtype-semibold regular.ttf / BrushType_SemiBoldA_(wwww.font-cat.com).ttf / BrushType_SemiBoldA_.ttf / BurstMyBubble.ttf / corbelb.ttf / DFHsr4.ttc / DFKtl8.ttc / fansubBlock.ttf / GeosansLight.ttf / Hyouka Italic.ttf / Hyouka Regular.ttf / IwaMinPro-Md-Kami.ttf / IwaOMinPro-Bd-Fate.ttf / IwaOMinPro-Hv-Fate.ttf / maya.ttf / PAPEJE.TTF / Quarter_bold.ttf / URLCANTMUXANDSINDALFCANTENCODE.ttf Video ID : 1 Format : HEVC Format/Info : High Efficiency Video Coding Format profile : Main 10@L4@Main Codec ID : V_MPEGH/ISO/HEVC Duration : 27 min 13 s Bit rate : 8 250 kb/s Width : 1 920 pixels Height : 1 080 pixels Display aspect ratio : 16:9 Frame rate mode : Constant Frame rate : 23.976 (24000/1001) FPS Color space : YUV Chroma subsampling : 4:2:0 Bit depth : 10 bits Bits/(Pixel*Frame) : 0.166 Stream size : 1.57 GiB (96%) Title : HEVC 10-bit [Mysteria] Language : Japanese Default : Yes Forced : No Color range : Limited Color primaries : BT.709 Transfer characteristics : BT.709 Matrix coefficients : BT.709 Audio ID : 2 Format : Opus Codec ID : A_OPUS Duration : 27 min 13 s Bit rate : 256 kb/s Channel(s) : 2 channels Channel layout : L R Sampling rate : 48.0 kHz Frame rate : 50.001 FPS (960 SPF) Compression mode : Lossy Stream size : 49.8 MiB (3%) Title : Japanese 2.0 Opus (256 kbps) Writing library : opusenc from opus-tools 0.2-3-gf5f571b Language : Japanese Default : Yes Forced : No ENCODER_OPTIONS : --bitrate 256 Text ID : 3 Format : ASS Codec ID : S_TEXT/ASS Codec ID/Info : Advanced Sub Station Alpha Duration : 27 min 3 s Bit rate : 686 b/s Count of elements : 1286 Compression mode : Lossless Stream size : 136 KiB (0%) Title : Full Subtitles [Coalgirls] Language : English Default : Yes Forced : No Menu 00:00:00.000 : :Intro 00:04:23.012 : :Opening 00:05:53.019 : :Part A 00:14:48.095 : :Part B 00:25:35.075 : :Ending 00:27:04.080 : :Preview ```

File list

  • [Mysteria] Hyouka+OVA [BD 1080p] (HEVC x265 10-bit Opus)
    • Season 1
      • Creditless
        • Hyouka-NCOP-NCED1.mkv (335.1 MiB)
        • Hyouka-NCOP-NCED2.mkv (412.0 MiB)
      • [Mysteria] Hyouka - 01.mkv (1.6 GiB)
      • [Mysteria] Hyouka - 02.mkv (1.4 GiB)
      • [Mysteria] Hyouka - 03.mkv (1.4 GiB)
      • [Mysteria] Hyouka - 04.mkv (1.8 GiB)
      • [Mysteria] Hyouka - 05.mkv (1.6 GiB)
      • [Mysteria] Hyouka - 06.mkv (1.3 GiB)
      • [Mysteria] Hyouka - 07.mkv (1.3 GiB)
      • [Mysteria] Hyouka - 08.mkv (2.3 GiB)
      • [Mysteria] Hyouka - 09.mkv (1.4 GiB)
      • [Mysteria] Hyouka - 10.mkv (1.5 GiB)
      • [Mysteria] Hyouka - 11.5.mkv (1.3 GiB)
      • [Mysteria] Hyouka - 11.mkv (1.5 GiB)
      • [Mysteria] Hyouka - 12.mkv (1.4 GiB)
      • [Mysteria] Hyouka - 13.mkv (1.3 GiB)
      • [Mysteria] Hyouka - 14.mkv (1.4 GiB)
      • [Mysteria] Hyouka - 15.mkv (1.4 GiB)
      • [Mysteria] Hyouka - 16.mkv (1.4 GiB)
      • [Mysteria] Hyouka - 17.mkv (1.4 GiB)
      • [Mysteria] Hyouka - 18.mkv (1.6 GiB)
      • [Mysteria] Hyouka - 19 .mkv (1.7 GiB)
      • [Mysteria] Hyouka - 20.mkv (1.4 GiB)
      • [Mysteria] Hyouka - 21.mkv (1.6 GiB)
      • [Mysteria] Hyouka - 22.mkv (1.4 GiB)
How the fuck can you inflate 1080p HEVC x265 10-bit up to 1.5 GB? Usually you get perfectly fine quality with ~300MB, unlike x264 which requires large filesizes.

Ingenioussubs (uploader)

User
It's called not watching stuff that's bitrate straved. Most of my releases are huge as **hell.** Just download somewhere else. I used to be just like that with size, but my perspective changed.
@viliml imho 300MB is perfect for 480p avi files but not 1080p BD rips, to me bit-rate starved anime is best watched on a 5" cell phone. @Ingenioussubs thanks for the quality release..
@viliml Buy another hard drive, they cheap.
>Usually you get perfectly fine quality with ~300MB, unlike x264 which requires large filesizes. maybe if you're legally blind
lol, even x265 often can't keep stuff at decent quality under 300MB.
Thank you for this OP. Got my 40TB synology nas and gsuite drive as a backup. Size doesn't matter now and I'm bitrate starved due to watching anime on 4K TV.
Why not use a lossless format for audio if there is such little size difference? It would be better for preservation to not have any lost data or compression artifacts.

Ingenioussubs (uploader)

User
**@Mabby** I noticed right after I posted the torrent. I deleted the original torrent, so it was too late to change anything. Could really care less about something that can't be changed.
I think that's the first time I've seen anyone use a semicolon in anime subs.

Ingenioussubs (uploader)

User
**@Simplistic** Coalgirls actually knows how to use proper punctuation lol. Actually noticed that oddity first time I watched the OP.
Thanks, but I would have used [gg] for the first 7 eps since I believe in 8thsin way more than Mazui's translator. I am also fairly certain a good translation of the show is still missing, but alas there's not much we can do. Also since you used Coalgirls as a base I hope you fixed some of the reported errors https://coalgirls.wakku.to/7577/hyouka anons made in the comments.

Ingenioussubs (uploader)

User
**@ Interruptor** Unfortunately I left everything as is. I haven't watched this show yet, but when I do, I'll correct the errors and post the subtitle fixes in the description. Thanks for informing me about this.
> *Original Source: Beatrice-Raws (https://nyaa.si/view/1253244) wait is this reencoding?

Ingenioussubs (uploader)

User
**@ Aryma** *Cough.* Cmon now. Did you compare the size? It’s only 1GB less because I swapped the FLAC with Opus. And no it’s not re-encoded. The amount of times I’ve made the same statement is ridiculous. It's marked as not a **remake** for a reason.
Ahh, one my favs! ...still have coalgirls release so probably won't dl this one but thanks for the quality encode
Welp I was planning to watch this series Might as well grab it from here Thanks @inge ༼ つ ◕‿◕ ༽つ
Hyouka Goodness!!!
I remember watching this years ago and found it frustrating how it was another Light Novel adaptation that ended prematurely. Shame too because it was different and I personally found it much better than the usual KyoAni fare of retarded girls doing retarded things.