[NSBC] Youkai Sharehouse E01 [HDTV] [1080i]

Category:
Date:
2020-08-01 22:11 UTC
Submitter:
Seeders:
1
Information:
TlNCQy50bwo=
Leechers:
2
File size:
3.6 GiB
Completed:
311
Info hash:
ace6310783e752d3cd114e65a663c98b4e66b40b
> ### In case there is no seeder, visit [here](https://nosobacrew.wordpress.com/2020/08/02/youkai-sharehouse/) ![](https://img.topddl.net/images/2020/08/01/main.png "") ![](https://img.topddl.net/images/2020/08/02/Youkai-Sharehouse-S01E01-1080i-HDTV-DD2.0-MPEG2-NSBC.mkv.jpg "") ``` General Unique ID : 18820757011327590954165181815608180741 (0xE28BEF69B3DA5A8D20BC67F31160005) Complete name : Youkai Sharehouse S01E01 1080i HDTV DD2.0 MPEG2-NSBC.mkv Format : Matroska Format version : Version 4 File size : 3.65 GiB Duration : 40 min 29 s Overall bit rate mode : Variable Overall bit rate : 12.9 Mb/s Movie name : Youkai Sharehouse S01E01 1080i HDTV DD2.0 MPEG2-NSBC Encoded by : MoMo | NSBC Encoded date : UTC 2020-08-01 21:56:22 Writing application : mkvmerge v29.0.0 ('Like It Or Not') 64-bit Writing library : libebml v1.3.6 + libmatroska v1.4.9 Copyright : NSBC Comment : MoMo | NSBC DATE_RECORDED : 2020 WEBSITE : NSBC.to Video ID : 1 Format : MPEG Video Format version : Version 2 Format profile : Main@High Format settings : CustomMatrix / BVOP Format settings, BVOP : Yes Format settings, Matrix : Custom Format settings, GOP : M=3, N=15 Format settings, picture structure : Frame Codec ID : V_MPEG2 Codec ID/Info : MPEG 1 or 2 Video Duration : 40 min 29 s Bit rate mode : Variable Bit rate : 12.7 Mb/s Maximum bit rate : 20.0 Mb/s Width : 1 440 pixels Height : 1 080 pixels Display aspect ratio : 16:9 Frame rate mode : Constant Frame rate : 29.970 (30000/1001) FPS Color space : YUV Chroma subsampling : 4:2:0 Bit depth : 8 bits Scan type : Interlaced Scan order : Top Field First Compression mode : Lossy Bits/(Pixel*Frame) : 0.273 Time code of first frame : 12:08:07;25 Time code source : Group of pictures header GOP, Open/Closed : Open GOP, Open/Closed of first frame : Closed Stream size : 3.59 GiB (98%) Title : [NSBC] Default : Yes Forced : No Color primaries : BT.709 Transfer characteristics : BT.709 Matrix coefficients : BT.709 Audio ID : 2 Format : AC-3 Format/Info : Audio Coding 3 Commercial name : Dolby Digital Codec ID : A_AC3 Duration : 40 min 29 s Bit rate mode : Constant Bit rate : 192 kb/s Channel(s) : 2 channels Channel layout : L R Sampling rate : 48.0 kHz Frame rate : 31.250 FPS (1536 SPF) Compression mode : Lossy Delay relative to video : 9 ms Stream size : 55.6 MiB (1%) Title : [NSBC] Language : Japanese Service kind : Complete Main Default : Yes Forced : No ```

File list

  • Youkai Sharehouse S01E01 1080i HDTV DD2.0 MPEG2-NSBC.mkv (3.6 GiB)