BDMV-ISO BERSERK GOLDEN AGE 1 + 3

Category:
Date:
2020-08-01 15:30 UTC
Submitter:
Seeders:
3
Information:
Leechers:
3
File size:
55.3 GiB
Completed:
65
Info hash:
ce29e9ba5dbd64d309e4494cc2557d1f7d9896c9
Hey i found Berserk Golden Age Movies 1 + 3 all japanese audio with commentary Im searching for movie 2 (BDMV) contact me if u have xspitfire911@gmail.com https://drive.google.com/drive/u/1/folders/1uezpThecv7DPllD5mERRKynK6oq0XW3T Video ID : 4113 (0x1011) Menu ID : 1 (0x1) Format : AVC Format/Info : Advanced Video Codec Format profile : High@L4.1 Format settings : CABAC / 4 Ref Frames Format settings, CABAC : Yes Format settings, Reference : 4 frames Codec ID : 27 Duration : 1 h 16 min Bit rate mode : Variable Maximum bit rate : 36.0 Mb/s Width : 1 920 pixels Height : 1 080 pixels Display aspect ratio : 16:9 Frame rate : 23.976 (24000/1001) FPS Color space : YUV Chroma subsampling : 4:2:0 Bit depth : 8 bits Scan type : Progressive Audio #1 ID : 4352 (0x1100) Menu ID : 1 (0x1) Format : PCM Format settings : Big / Signed Muxing mode : Blu-ray Codec ID : 128 Duration : 1 h 16 min Bit rate mode : Constant Bit rate : 2 304 kb/s Channel(s) : 2 channels Channel layout : L R Sampling rate : 48.0 kHz Bit depth : 24 bits Stream size : 1.24 GiB (5%) Audio #2 ID : 4353 (0x1101) Menu ID : 1 (0x1) Format : DTS XLL Format/Info : Digital Theater Systems Commercial name : DTS-HD Master Audio Muxing mode : Stream extension Codec ID : 134 Duration : 1 h 16 min Bit rate mode : Variable Channel(s) : 6 channels Channel layout : C L R Ls Rs LFE Sampling rate : 48.0 kHz Frame rate : 93.750 FPS (512 SPF) Bit depth : 24 bits Compression mode : Lossless Audio #3 ID : 4354 (0x1102) Menu ID : 1 (0x1) Format : AC-3 Format/Info : Audio Coding 3 Commercial name : Dolby Digital Muxing mode : Stream extension Codec ID : 131 Duration : 1 h 16 min Bit rate mode : Variable Bit rate : 448 kb/s Maximum bit rate : 2 817 kb/s Channel(s) : 6 channels Channel layout : L R C LFE Ls Rs Sampling rate : 48.0 kHz Frame rate : 31.250 FPS (1536 SPF) Bit depth : 16 bits Compression mode : Lossy Stream size : 246 MiB (1%) Service kind : Complete Main Audio #4 ID : 4355 (0x1103) Menu ID : 1 (0x1) Format : AC-3 Format/Info : Audio Coding 3 Commercial name : Dolby Digital Codec ID : 129 Duration : 1 h 16 min Bit rate mode : Constant Bit rate : 384 kb/s Channel(s) : 2 channels Channel layout : L R Sampling rate : 48.0 kHz Frame rate : 31.250 FPS (1536 SPF) Bit depth : 16 bits Compression mode : Lossy Stream size : 211 MiB (1%) Service kind : Complete Main Text ID : 4608 (0x1200) Menu ID : 1 (0x1) Format : PGS Codec ID : 144

File list

I'll just name were you can find it: U2 (exclusive torrent), Blutopia (Remux's Bludragon), PTP (BDMV) and where you can't find it: ACM don't have it (don't know why), AB have a remux but don't have the Japanese commentary audio. Also please don't create .ISO for BD most of places don't accept this format. (except nyaa) whatever. Good luck.

xspitfire911 (uploader)

User
Hey thanks you for your answer Yes not easy to find bd files do this is why I asked for some help and informations. For iso files, it's exceptional.
I understand that ADC is coming back and they are looking for people who were the main servers it is possible I have it in original physical record I would have to release it and pass it on there if I can and thanks
Oh mais où les as-tu trouvés ? Perso il me semble avoir 3 bdremux des films mais alors d'où ils viennent je sais plus du tout et là je suis en vacances (je rentre demain si ça peut t'intéresser) mais après j'ai aussi une question à te poser (je t'enverrai un mail tkt pas)

xspitfire911 (uploader)

User
@surume thanks man if you can share it :) @sabern sur un site :D après si tu as tout, j'aimerai bien avoir les 3 pour comparer ! Si tu veux, tu peux les uploader sur MEGA par exemple. Merci.
@xspitfire911 Will you grab the 3 BDMVs and re-upload, or will you only upload the 02 BDMV and these 2 as ISO? 3 BDMVs would be greatly appreciated, I can seed that for a long time.
@ cazador1337 ACM don't have a lot of stuff. They were meant to be ADC 2.0, but it just never accomplished to being it. It saddened me because I was hoping in helping it grow with my uploads, but the 8hr wait for a torrent to be accepted and then if no one downloaded.. just time I couldn't afford to waste. Now, Nyaa has its flaws although things move faster and people can communicate much easier as it's not invite-only. @ surume I hope that works out. I'd also love for ffshrine to be revived and fans have tried it on a new community, but it never recovered to the massive level of music that ffshrine had. I have most content I'd want, anyway.
@xspitfire911 je t'enverrai un mail dans la semaine avec toutes les infos de mes 3 films et pour te poser une question aussi :)

xspitfire911 (uploader)

User
Merci mon chou <3