[neoHEVC] NieA Under 7 [1080p x265 HEVC AAC] [Dual Audio]

Category:
Date:
2020-07-29 17:43 UTC
Submitter:
Seeders:
35
Information:
Leechers:
0
File size:
4.0 GiB
Completed:
2066
Info hash:
3c68a96d1452b0edc8967c8820bddce8aeb7b3e0
![](https://i.imgur.com/geEFUkn.png) *Join **[Discord](https://discord.gg/KYKYZUh)** for Current Projects, Encode-Requests and Seed-Request in case of no available seeds.* **NieA Under 7** *with `Dual Audio (Jpn/Eng)` and `Eng Subs` in `1080p HEVC`* Reencode of [Discotek] (x264 AVC FLAC) to (x265 HEVC AAC). Ⓜ️ [NieA Under 7 on MAL](https://myanimelist.net/anime/800/NieA_Under_7?q=niea%20) --- **Patch for Default Language / Subtitles Track** This comes with [English audio] and [Signs/Songs subtitles] as default tracks. I included an xDelta Patch for those who rather like [Japanese audio] with [Dialog subtitles] as default. > Simply put all the video files into the Patch folder and run the patch file depending on your OS (for Windows: run '*3.Apply Patch-Windows.bat*'). > Consult '*readme.txt*' if you need help. --- **Synopsis** In the 21st century, aliens have arrived on Earth and live among humans. In sleepy Enohana, the dirt-poor student Chigasaki Mayuko finds herself living together with NieA, a low-caste ("Under Seven") alien. While Mayuko struggles diligently to make ends meet, NieA seems to be totally unconcerned with the consequences of her actions. As the odd couple throws off the expected sparks, the wrecked alien mothership looms in the background... ![](https://i.imgur.com/ssltL3m.png) --- **Comparison** (avc: source, hevc: encode) *Open links, toggle with mouseclick and check title.* [![](https://i.imgur.com/crDKCxM.png)](https://slow.pics/c/xSoSDttC) [![](https://i.imgur.com/0tfRrMy.png)](https://slow.pics/c/hLyMKccp) [![](https://i.imgur.com/bDt4jD9.png)](https://slow.pics/c/aUCaqp8t) --- **Source** ?️ Video, Audio and Subs: [Discotek] https://nyaa.si/view/1107476 ? *Subtitles Info: Format `PGS`* --- **Media Info** ``` General Unique ID : 221190483276486612775140433144996473132 (0xA667BCCDD1F86B94892982180670A92C) Complete name : NieA Under 7 - S01E01.mkv Format : Matroska Format version : Version 4 File size : 377 MiB Duration : 23 min 27 s Overall bit rate : 2 249 kb/s Movie name : NieA Under 7 - S01E01 Encoded date : UTC 2020-07-25 12:18:08 Writing application : mkvmerge v47.0.0 ('Black Flag') 64-bit Writing library : libebml v1.3.10 + libmatroska v1.5.2 / Lavf58.29.100 Video ID : 1 Format : HEVC Format/Info : High Efficiency Video Coding Format profile : Main 10@L4@High Codec ID : V_MPEGH/ISO/HEVC Duration : 23 min 27 s Bit rate : 1 985 kb/s Width : 1 920 pixels Height : 1 080 pixels Display aspect ratio : 16:9 Frame rate mode : Constant Frame rate : 23.976 (24000/1001) FPS Color space : YUV Chroma subsampling : 4:2:0 Bit depth : 10 bits Bits/(Pixel*Frame) : 0.040 Stream size : 333 MiB (88%) Writing library : x265 3.2.1+1-b5c86a64bbbe:[Windows][GCC 9.2.0][64 bit] 10bit Encoding settings : cpuid=1111039 / frame-threads=2 / numa-pools=4 / wpp / no-pmode / no-pme / no-psnr / no-ssim / log-level=2 / input-csp=1 / input-res=1920x1080 / interlace=0 / total-frames=0 / level-idc=40 / high-tier=1 / uhd-bd=0 / ref=5 / no-allow-non-conformance / no-repeat-headers / annexb / no-aud / no-hrd / info / hash=0 / no-temporal-layers / open-gop / min-keyint=24 / keyint=240 / gop-lookahead=0 / bframes=8 / b-adapt=2 / b-pyramid / bframe-bias=0 / rc-lookahead=25 / lookahead-slices=4 / scenecut=40 / radl=0 / no-splice / no-intra-refresh / ctu=64 / min-cu-size=8 / rect / no-amp / max-tu-size=32 / tu-inter-depth=1 / tu-intra-depth=1 / limit-tu=0 / rdoq-level=2 / dynamic-rd=0.00 / no-ssim-rd / signhide / no-tskip / nr-intra=0 / nr-inter=0 / no-constrained-intra / strong-intra-smoothing / max-merge=3 / limit-refs=3 / limit-modes / me=3 / subme=3 / merange=57 / temporal-mvp / no-hme / weightp / no-weightb / no-analyze-src-pics / deblock=0:0 / sao / no-sao-non-deblock / rd=4 / selective-sao=4 / no-early-skip / rskip / no-fast-intra / no-tskip-fast / no-cu-lossless / no-b-intra / no-splitrd-skip / rdpenalty=0 / psy-rd=0.00 / psy-rdoq=1.00 / no-rd-refine / no-lossless / cbqpoffs=0 / crqpoffs=0 / rc=crf / crf=21.0 / qcomp=0.60 / qpstep=4 / stats-write=0 / stats-read=0 / vbv-maxrate=30000 / vbv-bufsize=30000 / vbv-init=0.9 / crf-max=0.0 / crf-min=0.0 / ipratio=1.40 / pbratio=1.30 / aq-mode=3 / aq-strength=0.80 / cutree / zone-count=0 / no-strict-cbr / qg-size=32 / no-rc-grain / qpmax=69 / qpmin=0 / no-const-vbv / sar=1 / overscan=0 / videoformat=5 / range=0 / colorprim=1 / transfer=1 / colormatrix=1 / chromaloc=0 / display-window=0 / cll=0,0 / min-luma=0 / max-luma=1023 / log2-max-poc-lsb=8 / vui-timing-info / vui-hrd-info / slices=1 / no-opt-qp-pps / no-opt-ref-list-length-pps / no-multi-pass-opt-rps / scenecut-bias=0.05 / no-opt-cu-delta-qp / no-aq-motion / no-hdr / no-hdr-opt / no-dhdr10-opt / no-idr-recovery-sei / analysis-reuse-level=5 / scale-factor=0 / refine-intra=0 / refine-inter=0 / refine-mv=1 / refine-ctu-distortion=0 / no-limit-sao / ctu-info=0 / no-lowpass-dct / refine-analysis-type=0 / copy-pic=1 / max-ausize-factor=1.0 / no-dynamic-refine / no-single-sei / no-hevc-aq / no-svt / no-field / qp-adaptation-range=1.00 Default : Yes Forced : No Color range : Limited Color primaries : BT.709 Transfer characteristics : BT.709 Matrix coefficients : BT.709 Audio #1 ID : 2 Format : AAC LC Format/Info : Advanced Audio Codec Low Complexity Codec ID : A_AAC-2 Duration : 23 min 27 s Bit rate : 117 kb/s Channel(s) : 2 channels Channel layout : L R Sampling rate : 48.0 kHz Frame rate : 46.875 FPS (1024 SPF) Compression mode : Lossy Delay relative to video : -43 ms Stream size : 19.6 MiB (5%) Title : Stereo - ENG (AAC) Language : English Default : Yes Forced : Yes Audio #2 ID : 3 Format : AAC LC Format/Info : Advanced Audio Codec Low Complexity Codec ID : A_AAC-2 Duration : 23 min 27 s Bit rate : 116 kb/s Channel(s) : 2 channels Channel layout : L R Sampling rate : 48.0 kHz Frame rate : 46.875 FPS (1024 SPF) Compression mode : Lossy Delay relative to video : -43 ms Stream size : 19.5 MiB (5%) Title : Stereo - JPN (AAC) Language : Japanese Default : No Forced : No Text #1 ID : 4 Format : PGS Muxing mode : zlib Codec ID : S_HDMV/PGS Codec ID/Info : Picture based subtitle format used on BDs/HD-DVDs Duration : 22 min 43 s Bit rate : 4 284 b/s Count of elements : 41 Stream size : 713 KiB (0%) Title : Signs & Songs - ENG (ASS) Language : English Default : Yes Forced : Yes Text #2 ID : 5 Format : PGS Muxing mode : zlib Codec ID : S_HDMV/PGS Codec ID/Info : Picture based subtitle format used on BDs/HD-DVDs Duration : 23 min 26 s Bit rate : 45.7 kb/s Count of elements : 544 Stream size : 7.66 MiB (2%) Title : Dialog - ENG (ASS) Language : English Default : No Forced : No ```

File list

  • [neoHEVC] NieA Under 7 [1080p x265 HEVC AAC] [Dual Audio]
    • Language Swap Patch
      • vcdiff
        • NieA Under 7 - S01E01.mkv.vcdiff (106.5 KiB)
        • NieA Under 7 - S01E02.mkv.vcdiff (105.0 KiB)
        • NieA Under 7 - S01E03.mkv.vcdiff (104.2 KiB)
        • NieA Under 7 - S01E04.mkv.vcdiff (107.8 KiB)
        • NieA Under 7 - S01E05.mkv.vcdiff (103.4 KiB)
        • NieA Under 7 - S01E06.mkv.vcdiff (111.6 KiB)
        • NieA Under 7 - S01E07.mkv.vcdiff (101.6 KiB)
        • NieA Under 7 - S01E08.mkv.vcdiff (109.1 KiB)
        • NieA Under 7 - S01E09.mkv.vcdiff (107.0 KiB)
        • NieA Under 7 - S01E10.mkv.vcdiff (103.0 KiB)
        • NieA Under 7 - S01E11.mkv.vcdiff (100.2 KiB)
        • NieA Under 7 - S01E12.mkv.vcdiff (105.4 KiB)
        • NieA Under 7 - S01E13.mkv.vcdiff (110.4 KiB)
      • 1.Readme.txt (1.1 KiB)
      • 2.Changelog.txt (0 Bytes)
      • 3.Apply Patch-Linux.sh (2.1 KiB)
      • 3.Apply Patch-Mac.command (2.1 KiB)
      • 3.Apply Patch-Windows.bat (2.3 KiB)
      • xdelta-3.1.0-x86_64.exe (609.8 KiB)
      • xdelta3 (838.8 KiB)
      • xdelta3_mac (144.7 KiB)
    • NieA Under 7 - S01E01.mkv (377.4 MiB)
    • NieA Under 7 - S01E02.mkv (284.7 MiB)
    • NieA Under 7 - S01E03.mkv (348.7 MiB)
    • NieA Under 7 - S01E04.mkv (393.5 MiB)
    • NieA Under 7 - S01E05.mkv (283.4 MiB)
    • NieA Under 7 - S01E06.mkv (295.4 MiB)
    • NieA Under 7 - S01E07.mkv (222.2 MiB)
    • NieA Under 7 - S01E08.mkv (285.7 MiB)
    • NieA Under 7 - S01E09.mkv (375.3 MiB)
    • NieA Under 7 - S01E10.mkv (222.4 MiB)
    • NieA Under 7 - S01E11.mkv (243.9 MiB)
    • NieA Under 7 - S01E12.mkv (365.1 MiB)
    • NieA Under 7 - S01E13.mkv (366.7 MiB)
Too bad there's nothing to remaster. As in most anime of 00-05's.
damn, didn't know people still remembered this series.
Thank you for doing my request - neoborn

neoborn (uploader)

User
![](https://i.imgur.com/MSA3n87.png)
Is there any particular reason you didn't crop out the black bars? On the other hand, I think there's a matroska parameter that could fix the issue on my end. I'll investigate.