[KillerSpit23] Love Live! Nijigasaki School Idol Muteki-kyuu*Believer (Spotify RIP)

Category:
Date:
2020-07-28 19:45 UTC
Submitter:
Seeders:
0
Information:
ko-fi.com/killerspit23
Leechers:
1
File size:
67.3 MiB
Completed:
297
Info hash:
79fb45e3e6c3351911d337306f4b6d27a88fe3b5
This is the Very High Quality from Spotify Complete name : Muteki-kyuu believer\Mirai Harmony.flac Format : FLAC Format/Info : Free Lossless Audio Codec File size : 33.8 MiB Duration : 4 min 6 s Overall bit rate mode : Variable Overall bit rate : 1 153 kb/s Album : Muteki-kyuu*Believer Track name : Mirai Harmony Performer : Njigasaki School Idol Audio Format : FLAC Format/Info : Free Lossless Audio Codec Duration : 4 min 6 s Bit rate mode : Variable Bit rate : 1 153 kb/s Channel(s) : 2 channels Channel layout : L R Sampling rate : 48.0 kHz Bit depth : 16 bits Compression mode : Lossless Stream size : 33.8 MiB (100%) Writing library : libFLAC 1.3.1 (UTC 2014-11-25) Complete name : Muteki-kyuu believer\Muteki-kyuu Believer.flac Format : FLAC Format/Info : Free Lossless Audio Codec File size : 32.2 MiB Duration : 4 min 1 s Overall bit rate mode : Variable Overall bit rate : 1 117 kb/s Album : Muteki-kyuu*Believer Track name : Muteki-kyuu*Believer Performer : Kasumi Nakasu Audio Format : FLAC Format/Info : Free Lossless Audio Codec Duration : 4 min 1 s Bit rate mode : Variable Bit rate : 1 117 kb/s Channel(s) : 2 channels Channel layout : L R Sampling rate : 48.0 kHz Bit depth : 16 bits Compression mode : Lossless Stream size : 32.2 MiB (100%) Writing library : libFLAC 1.3.1 (UTC 2014-11-25) Again this is from Very High Quality of Spotify

File list

  • Muteki-kyuu believer
    • Mirai Harmony.flac (33.8 MiB)
    • Muteki-kyuu Believer.flac (32.2 MiB)
    • cover.png (1.2 MiB)
For the last time please don't put this as lossless! if you want the best Spotify rips decrypt using a working tool Source is lossy.
Changed category.
imagine recording from spotify which is lossy and re-encoding as lossless bruh moment
320Kbps to <1000Kbps lmao 🤣