[neoHEVC] Elegant Yokai Apartment Life [1080p x265 HEVC AAC] [Multi Subs] Youkai Apartment no Yuuga na Nichijou

Category:
Date:
2020-07-27 17:34 UTC
Submitter:
Seeders:
5
Information:
Leechers:
1
File size:
5.7 GiB
Completed:
556
Info hash:
be0db6d3819b2134a7fd339f17144589c95bc599
![](https://i.imgur.com/geEFUkn.png) *Join **[Discord](https://discord.gg/KYKYZUh)** for Current Projects, Encode-Requests and Seed-Request in case of no available seeds.* **Elegant Yokai Apartment Life / Youkai Apartment no Yuuga na Nichijou** *with `Jpn Dub` and `Multi Subs` in `1080p HEVC`* Reencode of [Erai-Raws] (x264 AVC AAC) to (x265 HEVC AAC). Ⓜ️ [Elegant Yokai Apartment Life / Youkai Apartment no Yuuga na Nichijou on MAL](https://myanimelist.net/anime/35220/Youkai_Apartment_no_Yuuga_na_Nichijou) --- **Available Subtitles** • English • German • Portugues • Spanish • French • Arabic • Italian --- **Synopsis** Inaba Yuushi's parents died in his first year of middle school, and he moved in with his relatives. Though they did care for him, he could tell he was a burden. After he graduated, he happily prepared to move to a high school with a dormitory. Unfortunately, the dormitory burned to the ground before he could move in! Yuushi doesn't want to live with his grudging relatives, but it's rough finding lodging as an orphaned student with little money. He finally finds a room in a nice old building which seems too good to be true. The catch is that it is a Monster House, a place where humans and supernatural creatures—ghosts, mononoke, etc.—live together. Another high schooler lives there, a cute girl named Akine, and she's completely unfazed by the monsters. In fact, she can even exorcise evil spirits! Yuushi's high school life just got much stranger than he ever bargained for! ![](https://i.imgur.com/3csyPzp.png) --- **Comparison** (avc: source, hevc: encode) *Open links, toggle with mouseclick and check title.* [![](https://i.imgur.com/tPideiZ.png)](https://slow.pics/c/0mOLm3qv) [![](https://i.imgur.com/hBMJneh.png)](https://slow.pics/c/aqRYepIE) [![](https://i.imgur.com/n8v4ss5.png)](https://slow.pics/c/VNLCN9sd) --- **Source** ?️ Video, Audio and Subs: [Erai-Raws] https://nyaa.si/view/991001 ? *Subtitles Info: - Format `ASS`* --- **Media Info** ? [Full Mediainfo incl. Encoder Settings](https://pastebin.com/9FTD8LAF) ``` General Unique ID : 234477201687621694816060850586112815346 (0xB066AA993B56BA5E583FB5689B20F0F2) Complete name : Elegant Yokai Apartment Life - S01E01.mkv Format : Matroska Format version : Version 4 File size : 243 MiB Duration : 23 min 36 s Overall bit rate : 1 439 kb/s Movie name : Elegant Yokai Apartment Life - S01E01 Encoded date : UTC 2020-07-25 11:37:42 Writing application : mkvmerge v47.0.0 ('Black Flag') 64-bit Writing library : libebml v1.3.10 + libmatroska v1.5.2 / Lavf58.29.100 Video ID : 1 Format : HEVC Format/Info : High Efficiency Video Coding Format profile : Main 10@L4@High Codec ID : V_MPEGH/ISO/HEVC Duration : 23 min 36 s Bit rate : 1 307 kb/s Width : 1 920 pixels Height : 1 080 pixels Display aspect ratio : 16:9 Frame rate mode : Constant Frame rate : 23.976 (24000/1001) FPS Color space : YUV Chroma subsampling : 4:2:0 Bit depth : 10 bits Bits/(Pixel*Frame) : 0.026 Stream size : 221 MiB (91%) Writing library : x265 3.2.1+1-b5c86a64bbbe:[Windows][GCC 9.2.0][64 bit] 10bit Encoding settings : <Check Link Above> Default : Yes Forced : No Color range : Limited Color primaries : BT.709 Transfer characteristics : BT.709 Matrix coefficients : BT.709 Audio ID : 2 Format : AAC LC Format/Info : Advanced Audio Codec Low Complexity Codec ID : A_AAC-2 Duration : 23 min 36 s Bit rate : 128 kb/s Channel(s) : 2 channels Channel layout : L R Sampling rate : 44.1 kHz Frame rate : 43.066 FPS (1024 SPF) Compression mode : Lossy Delay relative to video : -83 ms Stream size : 21.6 MiB (9%) Title : Stereo - JPN (AAC) Language : Japanese Default : Yes Forced : No Text #1 ID : 3 Format : ASS Codec ID : S_TEXT/ASS Codec ID/Info : Advanced Sub Station Alpha Duration : 23 min 30 s Bit rate : 119 b/s Count of elements : 344 Compression mode : Lossless Stream size : 20.5 KiB (0%) Title : English Default : Yes Forced : No Text #2 ID : 4 Format : ASS Codec ID : S_TEXT/ASS Codec ID/Info : Advanced Sub Station Alpha Duration : 23 min 30 s Bit rate : 120 b/s Count of elements : 336 Compression mode : Lossless Stream size : 20.7 KiB (0%) Title : Deutsch Default : No Forced : No Text #3 ID : 5 Format : ASS Codec ID : S_TEXT/ASS Codec ID/Info : Advanced Sub Station Alpha Duration : 23 min 30 s Bit rate : 111 b/s Count of elements : 328 Compression mode : Lossless Stream size : 19.3 KiB (0%) Title : Español (España) Default : No Forced : No Text #4 ID : 6 Format : ASS Codec ID : S_TEXT/ASS Codec ID/Info : Advanced Sub Station Alpha Duration : 23 min 30 s Bit rate : 111 b/s Count of elements : 328 Compression mode : Lossless Stream size : 19.3 KiB (0%) Title : Español Default : No Forced : No Text #5 ID : 7 Format : ASS Codec ID : S_TEXT/ASS Codec ID/Info : Advanced Sub Station Alpha Duration : 23 min 30 s Bit rate : 111 b/s Count of elements : 271 Compression mode : Lossless Stream size : 19.3 KiB (0%) Title : Français (France) Default : No Forced : No Text #6 ID : 8 Format : ASS Codec ID : S_TEXT/ASS Codec ID/Info : Advanced Sub Station Alpha Duration : 23 min 30 s Bit rate : 132 b/s Count of elements : 372 Compression mode : Lossless Stream size : 22.8 KiB (0%) Title : Italiano Default : No Forced : No Text #7 ID : 9 Format : ASS Codec ID : S_TEXT/ASS Codec ID/Info : Advanced Sub Station Alpha Duration : 23 min 30 s Bit rate : 118 b/s Count of elements : 340 Compression mode : Lossless Stream size : 20.4 KiB (0%) Title : Português (Brazil) Default : No Forced : No ```

File list

  • [neoHEVC] Elegant Yokai Apartment Life - Youkai Apartment no Yuuga na Nichijou [1080p x265 HEVC AAC] [Multi Subs]
    • Elegant Yokai Apartment Life - S01E01.mkv (243.0 MiB)
    • Elegant Yokai Apartment Life - S01E02.mkv (215.3 MiB)
    • Elegant Yokai Apartment Life - S01E03.mkv (226.7 MiB)
    • Elegant Yokai Apartment Life - S01E04.mkv (198.8 MiB)
    • Elegant Yokai Apartment Life - S01E05.mkv (221.0 MiB)
    • Elegant Yokai Apartment Life - S01E06.mkv (211.1 MiB)
    • Elegant Yokai Apartment Life - S01E07.mkv (238.4 MiB)
    • Elegant Yokai Apartment Life - S01E08.mkv (210.3 MiB)
    • Elegant Yokai Apartment Life - S01E09.mkv (239.4 MiB)
    • Elegant Yokai Apartment Life - S01E10.mkv (222.6 MiB)
    • Elegant Yokai Apartment Life - S01E11.mkv (233.0 MiB)
    • Elegant Yokai Apartment Life - S01E12.mkv (248.4 MiB)
    • Elegant Yokai Apartment Life - S01E13.mkv (203.5 MiB)
    • Elegant Yokai Apartment Life - S01E14.mkv (219.8 MiB)
    • Elegant Yokai Apartment Life - S01E15.mkv (191.5 MiB)
    • Elegant Yokai Apartment Life - S01E16.mkv (241.5 MiB)
    • Elegant Yokai Apartment Life - S01E17.mkv (199.1 MiB)
    • Elegant Yokai Apartment Life - S01E18.mkv (225.6 MiB)
    • Elegant Yokai Apartment Life - S01E19.mkv (211.2 MiB)
    • Elegant Yokai Apartment Life - S01E20.mkv (218.6 MiB)
    • Elegant Yokai Apartment Life - S01E21.mkv (208.0 MiB)
    • Elegant Yokai Apartment Life - S01E22.mkv (241.5 MiB)
    • Elegant Yokai Apartment Life - S01E23.mkv (215.1 MiB)
    • Elegant Yokai Apartment Life - S01E24.mkv (236.9 MiB)
    • Elegant Yokai Apartment Life - S01E25.mkv (210.8 MiB)
    • Elegant Yokai Apartment Life - S01E26.mkv (321.0 MiB)
ah yes always hilarious https://streamable.com/2t7i1t
finally, someone did this.....couldn't find it for so long..thanks

neoborn (uploader)

User
I would have never found this thing by myself. It got requested and it sounded cool =)
Thank you for doing my request - neoborn
I don't know which font style you use in your other releases but I hope it's not this one. Subs are rather hard to see on very light background unless you're sitting close to screen. Consider increasing border thickness so that subs stand out more and are readable at glance.

neoborn (uploader)

User
**@Nokiya** These were the standard sub rips that came with [Erai-Raws]. They have a pretty noticeable black border. I can't really follow your concerns. Could you be a bit more specific? I usually don't change much on the styling of the subs that come with the releases I'm working with. Some changes here or there but only if it's absolutely necessary. Mostly to match them between seasons and some positioning. ![](https://i.imgur.com/Ys2af5T.png)
https://i.imgur.com/DmNdVgU.jpg Open this full screen. Move away from monitor 4 meters, if your screen is bigger than 23'' move more. Tell me how easy is to read left compared to right. (right is +1 outline thickness). Left practically blends into background and makes it so you have to focus to read it instead of glance.

neoborn (uploader)

User
**@Nokiya** My PC monitor is 24'' and I sit 80cm away when I watch things on that, which I barely ever do. I watch my shows on a 120'' screen and I sit 4.5m away from that :D (I am obviously way too close to that but it's just my room layout and I got used to it for anime content) You really watch your shows on a 23'' screen from 4 meters away? That's crazy! It's strange that the borders show like on the left sample picture to you. When I watch it they are much bigger somehow (check my screenshot above). They come even close to being too big for me :O In the end I can't make subs for every possible viewing scenario. Especially not for 4m on 23'' screens :P You might have to increase the borders on your end then to adjust for your setup :S すみません のきやさん
Yea I noticed your subs being much thicker. Aegisub shows your subs as my picture (left) Trebuchet MS outline set to 2. MPC as well. Only VLC shows them thicker for some reason, outline 6. Weird. I guess VLC detects they are super thin and puts massive outline? idk Mind you this only the second time ever I've seen subs being like this (thin to the point of being hard to read). Which media player do you use? Because the subs you use without media player altering them are definitely too thin (left on the picture). Yea, I do watch from about 3.5-4 meters away on 23", I have sharp sight so it's not an issue :p Anyway, because of this I just messed with MPC settings and I found I can simply overwrite the sub style included with episodes.

neoborn (uploader)

User
**@Nokiya** I use VLC to watch videos on my PC. I didn't know that different players play them differently. Will download different players to check for differences and also check for special settings in my VLC. If I detect differences I can see what I can do with future releases. It's good that you have found a solution that works for you with these though =) Cheers!