[NSBC] Miman Keisatsu E05 [HDTV] [1080i]

Category:
Date:
2020-07-27 02:40 UTC
Submitter:
Seeders:
1
Information:
TlNCQy50bwo=
Leechers:
2
File size:
3.6 GiB
Completed:
148
Info hash:
fa9e4ef5ce00527d6241af76414cab08f6393da7
> ### In case there is no seeder, visit [here](https://nosobacrew.wordpress.com/2020/06/28/miman-keisatsu-midnight-runner/) ![](https://img.topddl.net/images/2020/06/28/dd96e36139f2b7dd9fcf0e458cabf591.jpg "") ![](https://img.topddl.net/images/2020/07/27/Miman-Keisatsu-Midnight-Runner-S01E05-1080i-HDTV-AAC-MPEG2-NSBC.mkv.jpg "") ``` General Unique ID : 243620642948890526155662545874662416455 (0xB747A10ED5C1B536C7FFF2D592F36047) Complete name : Miman Keisatsu Midnight Runner S01E05 1080i HDTV AAC MPEG2-NSBC.mkv Format : Matroska Format version : Version 4 File size : 3.62 GiB Duration : 46 min 4 s Overall bit rate mode : Variable Overall bit rate : 11.2 Mb/s Movie name : Miman Keisatsu Midnight Runner S01E05 1080i HDTV AAC MPEG2-NSBC Encoded by : MoMo | NSBC Encoded date : UTC 2020-07-26 12:12:35 Writing application : mkvmerge v29.0.0 ('Like It Or Not') 64-bit Writing library : libebml v1.3.6 + libmatroska v1.4.9 Copyright : NSBC Comment : MoMo | NSBC DATE_RECORDED : 2020 WEBSITE : NSBC.to Video ID : 1 Format : MPEG Video Format version : Version 2 Format profile : Main@High Format settings : CustomMatrix / BVOP Format settings, BVOP : Yes Format settings, Matrix : Custom Format settings, GOP : M=3, N=15 Format settings, picture structure : Frame Codec ID : V_MPEG2 Codec ID/Info : MPEG 1 or 2 Video Duration : 46 min 4 s Bit rate mode : Variable Bit rate : 10.9 Mb/s Maximum bit rate : 20.0 Mb/s Width : 1 440 pixels Height : 1 080 pixels Display aspect ratio : 16:9 Frame rate mode : Constant Frame rate : 29.970 (30000/1001) FPS Color space : YUV Chroma subsampling : 4:2:0 Bit depth : 8 bits Scan type : Interlaced Scan order : Top Field First Compression mode : Lossy Bits/(Pixel*Frame) : 0.233 Time code of first frame : 04:25:33;20 Time code source : Group of pictures header Stream size : 3.49 GiB (97%) Title : [NSBC] Default : Yes Forced : No Color primaries : BT.709 Transfer characteristics : BT.709 Matrix coefficients : BT.709 Audio #1 ID : 2 Format : AAC LC Format/Info : Advanced Audio Codec Low Complexity Codec ID : A_AAC-2 Duration : 46 min 4 s Bit rate : 192 kb/s Channel(s) : 2 channels Channel layout : L R Sampling rate : 48.0 kHz Frame rate : 46.875 FPS (1024 SPF) Compression mode : Lossy Delay relative to video : 16 ms Stream size : 62.4 MiB (2%) Title : [NSBC] Language : Japanese Default : No Forced : No Audio #2 ID : 3 Format : AAC LC Format/Info : Advanced Audio Codec Low Complexity Codec ID : A_AAC-2 Duration : 46 min 4 s Bit rate : 192 kb/s Channel(s) : 2 channels Channel layout : L R Sampling rate : 48.0 kHz Frame rate : 46.875 FPS (1024 SPF) Compression mode : Lossy Delay relative to video : 16 ms Stream size : 62.4 MiB (2%) Title : [NSBC] Language : Japanese Default : Yes Forced : No Menu 00:00:00.000 : :Chapter 1 00:22:10.862 : :Chapter 2 00:27:10.829 : :Chapter 3 00:33:05.817 : :Chapter 4 ```

File list

  • Miman Keisatsu Midnight Runner S01E05 1080i HDTV AAC MPEG2-NSBC.mkv (3.6 GiB)