[NSBC] Remote de Korosareru 2020 SP [HDTV] [1080i]

Category:
Date:
2020-07-27 02:33 UTC
Submitter:
Seeders:
5
Information:
TlNCQy50bwo=
Leechers:
0
File size:
3.9 GiB
Completed:
309
Info hash:
89dc5f14711a096e4074b6195366c57acaef3c3a
> ### In case there is no seeder, visit [here](https://nosobacrew.wordpress.com/2020/07/26/remote-de-korosareru-sp/) ![](https://img.topddl.net/images/2020/07/26/H1x3mfv.jpg "") ![](https://img.topddl.net/images/2020/07/27/Remote-de-Korosareru-2020-SP-1080i-HDTV-AAC-MPEG2-NSBC.mkv.jpg "") ``` General Unique ID : 165835516761962539306786441080760604958 (0x7CC2C23DEE200FD425298F7481EA991E) Complete name : Remote de Korosareru 2020 SP 1080i HDTV AAC MPEG2-NSBC.mkv Format : Matroska Format version : Version 4 File size : 3.89 GiB Duration : 46 min 24 s Overall bit rate mode : Variable Overall bit rate : 12.0 Mb/s Movie name : Remote de Korosareru 2020 SP 1080i HDTV AAC MPEG2-NSBC Encoded by : MoMo | NSBC Encoded date : UTC 2020-07-26 23:04:25 Writing application : mkvmerge v29.0.0 ('Like It Or Not') 64-bit Writing library : libebml v1.3.6 + libmatroska v1.4.9 Copyright : NSBC Comment : MoMo | NSBC DATE_RECORDED : 2020 WEBSITE : NSBC.to Video ID : 1 Format : MPEG Video Format version : Version 2 Format profile : Main@High Format settings : CustomMatrix / BVOP Format settings, BVOP : Yes Format settings, Matrix : Custom Format settings, GOP : M=3, N=15 Format settings, picture structure : Frame Codec ID : V_MPEG2 Codec ID/Info : MPEG 1 or 2 Video Duration : 46 min 24 s Bit rate mode : Variable Bit rate : 11.7 Mb/s Maximum bit rate : 20.0 Mb/s Width : 1 440 pixels Height : 1 080 pixels Display aspect ratio : 16:9 Frame rate mode : Constant Frame rate : 29.970 (30000/1001) FPS Standard : Component Color space : YUV Chroma subsampling : 4:2:0 Bit depth : 8 bits Scan type : Interlaced Scan order : Top Field First Compression mode : Lossy Bits/(Pixel*Frame) : 0.252 Time code of first frame : 00:00:00:00 Time code source : Group of pictures header GOP, Open/Closed : Open GOP, Open/Closed of first frame : Closed Stream size : 3.80 GiB (98%) Title : [NSBC] Default : Yes Forced : No Color primaries : BT.709 Transfer characteristics : BT.709 Matrix coefficients : BT.709 Audio ID : 2 Format : AAC LC Format/Info : Advanced Audio Codec Low Complexity Codec ID : A_AAC-2 Duration : 46 min 24 s Bit rate : 253 kb/s Channel(s) : 2 channels Channel layout : L R Sampling rate : 48.0 kHz Frame rate : 46.875 FPS (1024 SPF) Compression mode : Lossy Stream size : 83.9 MiB (2%) Title : [NSBC] Language : Japanese Default : Yes Forced : No Text ID : 3 Format : UTF-8 Codec ID : S_TEXT/UTF8 Codec ID/Info : UTF-8 Plain Text Duration : 46 min 16 s Bit rate : 74 b/s Count of elements : 728 Stream size : 25.3 KiB (0%) Title : [NSBC] Language : Japanese Default : Yes Forced : No ```

File list

  • Remote de Korosareru 2020 SP 1080i HDTV AAC MPEG2-NSBC.mkv (3.9 GiB)
thanks for sharing!!! Can you share hulu version in nyaa?? btw,can you share "Mikaiketsu no Onna Keishichou Bunsho Sousakan Season2"? thanks a lot!!!