[Tess] Release the Spyce [BD 1280x720 AVC Dual-Audio AAC]

Category:
Date:
2020-07-26 21:35 UTC
Submitter:
Seeders:
3
Information:
No information.
Leechers:
0
File size:
5.5 GiB
Completed:
318
Info hash:
4cd2f9211d2c332bcc37cce228453b62fd0cad21
Source: [US BDMV](https://nyaa.si/view/1260799 "https://nyaa.si/view/1260799") Subs: BDMV PGS Audio: qAAC @ q127 Uploader Notes: Per usual with most my Sentai BDMV encodes Sentai's annoying 45 second black screen credits at the end of every episode have been cut. I have also included the Intermission OADs that aired after each episode when the show was running. These were included as an extra on the bluray and are fully subbed. Mediainfo: >General >Unique ID : 200507410151169112851171229269530972676 (0x96D8529134B939E29D65392881F71204) >Complete name : [Tess] Release the Spyce - 01 [BD 1280x720 AVC Dual-Audio AAC][F7BC4EA0].mkv >Format : Matroska >Format version : Version 4 >File size : 459 MiB >Duration : 24 min 31 s >Overall bit rate : 2 616 kb/s >Encoded date : UTC 2020-07-12 22:29:10 >Writing application : mkvmerge v47.0.0 ('Black Flag') 64-bit >Writing library : libebml v1.3.10 + libmatroska v1.5.2 > >Video >ID : 1 >Format : AVC >Format/Info : Advanced Video Codec >Format profile : High 10@L5.1 >Format settings : CABAC / 12 Ref Frames >Format settings, CABAC : Yes >Format settings, Reference frames : 12 frames >Codec ID : V_MPEG4/ISO/AVC >Duration : 24 min 31 s >Bit rate : 2 049 kb/s >Width : 1 280 pixels >Height : 720 pixels >Display aspect ratio : 16:9 >Frame rate mode : Constant >Frame rate : 23.976 (24000/1001) FPS >Color space : YUV >Chroma subsampling : 4:2:0 >Bit depth : 10 bits >Scan type : Progressive >Bits/(Pixel*Frame) : 0.093 >Stream size : 359 MiB (78%) >Writing library : x264 core 159 r2999 296494a >Encoding settings : cabac=1 / ref=12 / deblock=1:-2:-2 / analyse=0x3:0x133 / me=umh / subme=11 / psy=1 / psy_rd=1.00:0.00 / mixed_ref=1 / me_range=32 / chroma_me=1 / trellis=2 / 8x8dct=1 / cqm=0 / deadzone=21,11 / fast_pskip=0 / chroma_qp_offset=-2 / threads=22 / lookahead_threads=6 / sliced_threads=0 / slices=4 / nr=0 / decimate=1 / interlaced=0 / bluray_compat=0 / constrained_intra=0 / bframes=8 / b_pyramid=2 / b_adapt=2 / b_bias=0 / direct=3 / weightb=1 / open_gop=0 / weightp=2 / keyint=250 / keyint_min=23 / scenecut=40 / intra_refresh=0 / rc_lookahead=250 / rc=crf / mbtree=1 / crf=15.0 / qcomp=0.60 / qpmin=0 / qpmax=69 / qpstep=4 / vbv_maxrate=720000 / vbv_bufsize=720000 / crf_max=0.0 / nal_hrd=none / filler=0 / ip_ratio=1.40 / aq=3:0.80 >Default : Yes >Forced : No > >Audio #1 >ID : 2 >Format : AAC LC >Format/Info : Advanced Audio Codec Low Complexity >Codec ID : A_AAC-2 >Duration : 24 min 31 s >Bit rate : 275 kb/s >Channel(s) : 2 channels >Channel layout : L R >Sampling rate : 48.0 kHz >Frame rate : 46.875 FPS (1024 SPF) >Compression mode : Lossy >Delay relative to video : 20 ms >Stream size : 48.3 MiB (11%) >Language : Japanese >Default : Yes >Forced : No > >Audio #2 >ID : 3 >Format : AAC LC >Format/Info : Advanced Audio Codec Low Complexity >Codec ID : A_AAC-2 >Duration : 24 min 31 s >Bit rate : 273 kb/s >Channel(s) : 2 channels >Channel layout : L R >Sampling rate : 48.0 kHz >Frame rate : 46.875 FPS (1024 SPF) >Compression mode : Lossy >Delay relative to video : 20 ms >Stream size : 47.8 MiB (10%) >Language : English >Default : No >Forced : No > >Text #1 >ID : 4 >Format : PGS >Muxing mode : zlib >Codec ID : S_HDMV/PGS >Codec ID/Info : Picture based subtitle format used on BDs/HD-DVDs >Duration : 23 min 50 s >Bit rate : 58.0 kb/s >Count of elements : 688 >Stream size : 9.90 MiB (2%) >Language : English >Default : Yes >Forced : No > >Text #2 >ID : 5 >Format : PGS >Muxing mode : zlib >Codec ID : S_HDMV/PGS >Codec ID/Info : Picture based subtitle format used on BDs/HD-DVDs >Duration : 23 min 50 s >Bit rate : 4 252 b/s >Count of elements : 71 >Stream size : 742 KiB (0%) >Title : Signs/Songs >Language : English >Default : No >Forced : No > >Menu >00:00:00.000 : en:Chapter 01 >00:04:28.768 : en:Chapter 02 >00:13:18.506 : en:Chapter 03 >00:22:04.489 : en:Chapter 04 >00:23:34.454 : en:Chapter 05 >00:24:15.495 : en:Chapter 06 > >

File list

  • [Tess] Release the Spyce [BD 1280x720 AVC Dual-Audio AAC]
    • [Tess] Release the Spyce - 01 [BD 1280x720 AVC Dual-Audio AAC][F7BC4EA0].mkv (458.9 MiB)
    • [Tess] Release the Spyce - 02 [BD 1280x720 AVC Dual-Audio AAC][F171A348].mkv (456.2 MiB)
    • [Tess] Release the Spyce - 03 [BD 1280x720 AVC Dual-Audio AAC][566A458E].mkv (440.4 MiB)
    • [Tess] Release the Spyce - 04 [BD 1280x720 AVC Dual-Audio AAC][E8584E3A].mkv (408.8 MiB)
    • [Tess] Release the Spyce - 05 [BD 1280x720 AVC Dual-Audio AAC][56CF7670].mkv (425.9 MiB)
    • [Tess] Release the Spyce - 06 [BD 1280x720 AVC Dual-Audio AAC][E178E368].mkv (390.0 MiB)
    • [Tess] Release the Spyce - 07 [BD 1280x720 AVC Dual-Audio AAC][FE76ACF2].mkv (457.9 MiB)
    • [Tess] Release the Spyce - 08 [BD 1280x720 AVC Dual-Audio AAC][813B6EB4].mkv (438.5 MiB)
    • [Tess] Release the Spyce - 09 [BD 1280x720 AVC Dual-Audio AAC][745E424D].mkv (443.2 MiB)
    • [Tess] Release the Spyce - 10 [BD 1280x720 AVC Dual-Audio AAC][4DB13D9C].mkv (465.8 MiB)
    • [Tess] Release the Spyce - 11 [BD 1280x720 AVC Dual-Audio AAC][CD345B3D].mkv (450.0 MiB)
    • [Tess] Release the Spyce - 12 [BD 1280x720 AVC Dual-Audio AAC][18AABAD1].mkv (402.1 MiB)
    • [Tess] Release the Spyce - Intermission [BD 1280x720 AVC AAC][8352CBF9].mkv (358.7 MiB)

Tesseract (uploader)

User
@omnipotent500 there isn't really a point in a 1080p release the blurays are upscales since the anime was natively animated at 720p a video player with a halfway decent scaler will look just as good as a 1080p encode.