[NSBC] Remote de Korosareru 2020 SP [WEBDL] 720p]

Category:
Date:
2020-07-26 15:37 UTC
Submitter:
Seeders:
3
Information:
TlNCQy50bwo=
Leechers:
0
File size:
1.0 GiB
Completed:
452
Info hash:
221b41528f131de1e6a87a5d2943dee6aa8e516b
> ### In case there is no seeder, visit [here](https://nosobacrew.wordpress.com/2020/07/26/remote-de-korosareru-sp/) ![](https://img.topddl.net/images/2020/07/26/H1x3mfv.jpg "") ![](https://img.topddl.net/images/2020/07/26/Remote-de-Korosareru-2020-SP-720p-WEB-DL-AAC-H.264-NSBC.mkv.jpg "") ``` General Unique ID : 217584342004556440231714545927677851434 (0xA3B1384FEE1C773C7B208B4DBD2CB72A) Complete name : Remote de Korosareru 2020 SP 720p WEB-DL AAC H.264-NSBC.mkv Format : Matroska Format version : Version 4 File size : 1.01 GiB Duration : 46 min 16 s Overall bit rate : 3 118 kb/s Movie name : Remote de Korosareru 2020 SP 720p WEB-DL AAC H.264-NSBC Encoded by : NoNe | NSBC Encoded date : UTC 2020-07-26 15:32:02 Writing application : mkvmerge v29.0.0 ('Like It Or Not') 64-bit Writing library : libebml v1.3.6 + libmatroska v1.4.9 Copyright : NSBC Comment : NoNe | NSBC DATE_RECORDED : 2020 NOTICE ME : SENPAI WEBSITE : NSBC.to Video ID : 1 Format : AVC Format/Info : Advanced Video Codec Format profile : Main@L3.1 Format settings : CABAC / 3 Ref Frames Format settings, CABAC : Yes Format settings, Reference frames : 3 frames Format settings, GOP : M=1, N=30 Codec ID : V_MPEG4/ISO/AVC Duration : 46 min 16 s Bit rate : 2 987 kb/s Width : 1 280 pixels Height : 720 pixels Display aspect ratio : 16:9 Frame rate mode : Constant Frame rate : 29.970 (30000/1001) FPS Color space : YUV Chroma subsampling : 4:2:0 Bit depth : 8 bits Scan type : Progressive Bits/(Pixel*Frame) : 0.108 Stream size : 988 MiB (96%) Title : [NSBC] Default : Yes Forced : No Audio ID : 2 Format : AAC LC Format/Info : Advanced Audio Codec Low Complexity Codec ID : A_AAC-2 Duration : 46 min 16 s Bit rate : 128 kb/s Channel(s) : 2 channels Channel layout : L R Sampling rate : 48.0 kHz Frame rate : 46.875 FPS (1024 SPF) Compression mode : Lossy Stream size : 42.3 MiB (4%) Title : [NSBC] Language : Japanese Default : Yes Forced : No ```

File list

  • Remote de Korosareru 2020 SP 720p WEB-DL AAC H.264-NSBC.mkv (1.0 GiB)