[NSBC] Hanzawa Naoki 2020 Season 2 E02 [HDTV] [1080i]

Category:
Date:
2020-07-26 15:25 UTC
Submitter:
Seeders:
18
Information:
TlNCQy50bwo=
Leechers:
3
File size:
5.8 GiB
Completed:
3943
Info hash:
6f3f6392280110414caa3473dacde09a7f4ecc36
> ### In case there is no seeder, visit [here](https://nosobacrew.wordpress.com/2020/07/19/hanzawa-naoki-2020-season-2/) ![](https://img.topddl.net/images/2020/07/19/poster.jpg "'") ![](https://img.topddl.net/images/2020/07/26/Hanzawa-Naoki-2020-S02E02-1080i-HDTV-AAC-MPEG2-NSBC.mkv.jpg "'") ``` General Unique ID : 275857364346968210198325108820349223822 (0xCF88322268FCE6B8CD4D009B54DB038E) Complete name : Hanzawa Naoki 2020 S02E02 1080i HDTV AAC MPEG2-NSBC.mkv Format : Matroska Format version : Version 4 File size : 5.76 GiB Duration : 1 h 0 min Overall bit rate mode : Variable Overall bit rate : 13.7 Mb/s Movie name : Hanzawa Naoki 2020 S02E02 1080i HDTV AAC MPEG2-NSBC Encoded date : UTC 2020-07-26 15:17:34 Writing application : mkvmerge v29.0.0 ('Like It Or Not') 64-bit Writing library : libebml v1.3.6 + libmatroska v1.4.9 Video ID : 1 Format : MPEG Video Format version : Version 2 Format profile : Main@High Format settings : CustomMatrix / BVOP Format settings, BVOP : Yes Format settings, Matrix : Custom Format settings, GOP : M=3, N=15 Format settings, picture structure : Frame Codec ID : V_MPEG2 Codec ID/Info : MPEG 1 or 2 Video Duration : 1 h 0 min Bit rate mode : Variable Bit rate : 13.5 Mb/s Maximum bit rate : 20.0 Mb/s Width : 1 440 pixels Height : 1 080 pixels Display aspect ratio : 16:9 Frame rate mode : Constant Frame rate : 29.970 (30000/1001) FPS Color space : YUV Chroma subsampling : 4:2:0 Bit depth : 8 bits Scan type : Interlaced Scan order : Top Field First Compression mode : Lossy Bits/(Pixel*Frame) : 0.291 Time code of first frame : 00:00:00:00 Time code source : Group of pictures header GOP, Open/Closed : Open Stream size : 5.68 GiB (99%) Title : [NSBC] Default : Yes Forced : No Color primaries : BT.709 Transfer characteristics : BT.709 Matrix coefficients : BT.709 Audio ID : 2 Format : AAC LC Format/Info : Advanced Audio Codec Low Complexity Codec ID : A_AAC-2 Duration : 1 h 0 min Bit rate : 192 kb/s Channel(s) : 2 channels Channel layout : L R Sampling rate : 48.0 kHz Frame rate : 46.875 FPS (1024 SPF) Compression mode : Lossy Delay relative to video : -18 ms Stream size : 81.1 MiB (1%) Title : [NSBC] Language : Japanese Default : Yes Forced : No ```

File list

  • Hanzawa Naoki 2020 S02E02 1080i HDTV AAC MPEG2-NSBC.mkv (5.8 GiB)