[neoHEVC] UN-GO [Season 1 + Movie] [BD 1080p x265 HEVC AAC] [Dual Audio]

Category:
Date:
2020-07-26 09:55 UTC
Submitter:
Seeders:
11
Information:
Leechers:
2
File size:
4.9 GiB
Completed:
1795
Info hash:
f633060456d569cda5dc6fdc88d22837fc22ae47
![](https://i.imgur.com/geEFUkn.png) *Join **[Discord](https://discord.gg/KYKYZUh)** for Current Projects, Encode-Requests and Seed-Request in case of no available seeds.* **UN-GO** Including *UN-GO: Inga-ron* *with `Dual Audio (Jpn/Eng)` and `Eng Subs` in `BD 1080p HEVC`* UN-GO: Reencode of [Doki] (x264 AVC FLAC) to (x265 HEVC AAC) with added English audio tracks from [Daman]. UN-GO: Inga-ron: Reencode of [Delivroozzi] (x264 AVC FLAC) to (x265 HEVC AAC) with added subtitles from [Commie] and English audio track from [Daman]. I created additional Signs & Songs tracks from the full sub tracks to go with the newly added English audio tracks. *Side Note: When I did this show the first time around I missed the fact that it has an English dub. That's why I came back to it and did this one. This is simply my last release with the added English audio tracks. The video and original audio tracks are the same as in my other UN-GO upload. If you don't need the English audio (roughly 40MB per EP) go for the version mentioned below under 'RELATED RELEASES'.* Ⓜ️ [UN-GO on MAL](https://myanimelist.net/anime/10798/UN-GO) Ⓜ️ [UN-GO: Inga-ron on MAL](https://myanimelist.net/anime/11531/UN-GO__Inga-ron) --- **Patch for Default Language / Subtitles Track** This comes with [English audio] and [Signs/Songs subtitles] as default tracks. I included an xDelta Patch for those who rather like [Japanese audio] with [Dialog subtitles] as default. > Simply put all the video files into the Patch folder and run the patch file depending on your OS (for Windows: run '*3.Apply Patch-Windows.bat*'). > Consult '*readme.txt*' if you need help. --- **Related Releases:** ▶️ [Single Audio Version (Jpn Dub Eng Sub)](https://nyaa.si/view/1255837) --- **Synopsis** In a dystopian future, detective Shinjuurou Yuuki—known by some as the "Defeated Detective"—solves mysteries throughout Tokyo. Aided by his odd associate Inga, Shinjuurou's insight and ingenuity in cracking cases, particularly homicides, lead to numerous mysteries solved and culprits caught. However, his partner seems to have some other, more sinister intentions for the people they catch, and the truth of the assistant's identity and motivation is shrouded in secrecy. ![](https://i.imgur.com/3uPGfoL.png) --- **Comparison** (avc: source, hevc: encode) *Open links, toggle with mouseclick and check title.* [![](https://i.imgur.com/Lh0qErY.png)](https://slow.pics/c/INiJTN57) [![](https://i.imgur.com/7MdTtOw.png)](https://slow.pics/c/bcjR6ptp) [![](https://i.imgur.com/roDX7Nw.png)](https://slow.pics/c/1htnaI9b) --- **Source** ?️ UN-GO: Video, Jpn Audio and Subs: [Doki] https://nyaa.si/view/948159 ?️ UN-GO: Inga-ron: Video, Jpn Audio and Fra Subs: [Delivroozzi] https://nyaa.si/view/1247182 ?️ UN-GO: Inga-ron: Eng Subs: [Commie] https://nyaa.si/view/1050372 ?️ UN-GO + UN-GO: Inga-ron: Eng Audio [Daman] https://nyaa.si/view/371707 ? *Subtitles Info: Season [Doki], Movie [Commie] - Format `ASS`* --- **Media Info** ? [Full Mediainfo incl. Encoder Settings](https://pastebin.com/sv3x8yJ8) ``` General Unique ID : 66039715663292050845720591205081862578 (0x31AEC95E0F15B1E89E8548365380D1B2) Complete name : UN-GO - S01E01.mkv Format : Matroska Format version : Version 4 File size : 385 MiB Duration : 23 min 22 s Overall bit rate : 2 305 kb/s Movie name : UN-GO - S01E01 Encoded date : UTC 2020-07-25 09:06:53 Writing application : mkvmerge v47.0.0 ('Black Flag') 64-bit Writing library : libebml v1.3.10 + libmatroska v1.5.2 / Lavf58.47.100 Attachments : ALIEN5.TTF / ANA-ONEIROPARMENI82.TTF / arial.ttf / AVGARDNEclipse.ttf / Brady Bunch.ttf / calibri.ttf / FRADM.TTF / icedeart.ttf / kaiu.ttf / linkin.ttf / MECHAG.TTF / MTCORSVA.TTF / SCAR6.TTF / segoepr.ttf / THROW MY HANDS UP IN THE AIR.TTF / times.ttf / Vesta-Bold.otf / y2k.ttf Video ID : 1 Format : HEVC Format/Info : High Efficiency Video Coding Format profile : Main 10@L4@High Codec ID : V_MPEGH/ISO/HEVC Duration : 23 min 22 s Bit rate : 1 804 kb/s Width : 1 920 pixels Height : 1 080 pixels Display aspect ratio : 16:9 Frame rate mode : Constant Frame rate : 23.976 (24000/1001) FPS Color space : YUV Chroma subsampling : 4:2:0 Bit depth : 10 bits Bits/(Pixel*Frame) : 0.036 Stream size : 301 MiB (78%) Writing library : x265 3.2.1+1-b5c86a64bbbe:[Windows][GCC 9.2.0][64 bit] 10bit Encoding settings : <Check Link Above> Default : Yes Forced : No Color range : Limited Color primaries : BT.709 Transfer characteristics : BT.709 Matrix coefficients : BT.709 Audio #1 ID : 2 Format : AAC LC Format/Info : Advanced Audio Codec Low Complexity Codec ID : A_AAC-2 Duration : 23 min 22 s Bit rate : 256 kb/s Channel(s) : 2 channels Channel layout : L R Sampling rate : 48.0 kHz Frame rate : 46.875 FPS (1024 SPF) Compression mode : Lossy Delay relative to video : -12 ms Stream size : 42.8 MiB (11%) Title : Stereo - ENG (AAC) Language : English Default : Yes Forced : Yes Audio #2 ID : 3 Format : AAC LC Format/Info : Advanced Audio Codec Low Complexity Codec ID : A_AAC-2 Duration : 23 min 22 s Bit rate : 192 kb/s Channel(s) : 2 channels Channel layout : L R Sampling rate : 48.0 kHz Frame rate : 46.875 FPS (1024 SPF) Compression mode : Lossy Delay relative to video : -21 ms Stream size : 32.2 MiB (8%) Title : Stereo - JPN (AAC) Language : Japanese Default : No Forced : No Text #1 ID : 4 Format : ASS Codec ID : S_TEXT/ASS Codec ID/Info : Advanced Sub Station Alpha Duration : 22 min 38 s Bit rate : 144 b/s Count of elements : 235 Compression mode : Lossless Stream size : 24.0 KiB (0%) Title : Signs & Songs - ENG (ASS) Language : English Default : Yes Forced : Yes Text #2 ID : 5 Format : ASS Codec ID : S_TEXT/ASS Codec ID/Info : Advanced Sub Station Alpha Duration : 23 min 13 s Bit rate : 298 b/s Count of elements : 604 Compression mode : Lossless Stream size : 50.8 KiB (0%) Title : Dialog - ENG (ASS) Language : English Default : No Forced : No Menu 00:00:00.000 : :Prologue 00:00:23.065 : :OP 00:01:50.527 : :Part A 00:09:34.032 : :Part B 00:21:30.456 : :ED 00:22:51.203 : :Preview ```

File list

  • [neoHEVC] UN-GO + Inga-Ron [BD 1080p x265 HEVC AAC] [Dual Audio]
    • Language Swap Patch
      • vcdiff
        • UN-GO - Inga-ron (Episode 0).mkv.vcdiff (202.3 KiB)
        • UN-GO - S01E01.mkv.vcdiff (101.7 KiB)
        • UN-GO - S01E02.mkv.vcdiff (104.0 KiB)
        • UN-GO - S01E03.mkv.vcdiff (101.1 KiB)
        • UN-GO - S01E04.mkv.vcdiff (100.1 KiB)
        • UN-GO - S01E05.mkv.vcdiff (101.0 KiB)
        • UN-GO - S01E06.mkv.vcdiff (98.5 KiB)
        • UN-GO - S01E07.mkv.vcdiff (98.8 KiB)
        • UN-GO - S01E08.mkv.vcdiff (101.7 KiB)
        • UN-GO - S01E09.mkv.vcdiff (102.3 KiB)
        • UN-GO - S01E10.mkv.vcdiff (102.0 KiB)
        • UN-GO - S01E11.mkv.vcdiff (100.3 KiB)
      • 1.Readme.txt (1.1 KiB)
      • 2.Changelog.txt (0 Bytes)
      • 3.Apply Patch-Linux.sh (1.6 KiB)
      • 3.Apply Patch-Mac.command (1.7 KiB)
      • 3.Apply Patch-Windows.bat (1.9 KiB)
      • xdelta-3.1.0-x86_64.exe (609.8 KiB)
      • xdelta3 (838.8 KiB)
      • xdelta3_mac (144.7 KiB)
    • UN-GO - Inga-ron (Episode 0).mkv (671.3 MiB)
    • UN-GO - S01E01.mkv (385.4 MiB)
    • UN-GO - S01E02.mkv (498.4 MiB)
    • UN-GO - S01E03.mkv (384.2 MiB)
    • UN-GO - S01E04.mkv (401.0 MiB)
    • UN-GO - S01E05.mkv (363.6 MiB)
    • UN-GO - S01E06.mkv (304.0 MiB)
    • UN-GO - S01E07.mkv (346.2 MiB)
    • UN-GO - S01E08.mkv (410.1 MiB)
    • UN-GO - S01E09.mkv (376.5 MiB)
    • UN-GO - S01E10.mkv (396.5 MiB)
    • UN-GO - S01E11.mkv (462.3 MiB)
oh, now I can replace my 720p one.
Thank you very much
Thank you so much for uploading the Dual Audio/English Dubbed Version of the anime! You're the best! This anime in particular is such a rare find! You're awesome as always! Reminds me of Darker Than Black...