Ride.Your.Wave.Kimi.to.Nami.ni.Noretara.2019.Dual.Audio.Multi.Subtitles.1080p.BluRay.x264-WUTANG

Category:
Date:
2020-07-25 15:42 UTC
Submitter:
Seeders:
5
Information:
No information.
Leechers:
0
File size:
12.2 GiB
Completed:
405
Info hash:
bad8a205e50ce8abe716fa37800aade4796eb4c0
#Mediainfo Video ID : 1 Format : AVC Format/Info : Advanced Video Codec Format profile : High@L4.1 Format settings : CABAC / 4 Ref Frames Format settings, CABAC : Yes Format settings, Reference frames : 4 frames Codec ID : V_MPEG4/ISO/AVC Duration : 1 h 35 min Bit rate : 10.3 Mb/s Width : 1 920 pixels Height : 1 080 pixels Display aspect ratio : 16:9 Frame rate mode : Constant Frame rate : 23.976 (24000/1001) FPS Color space : YUV Chroma subsampling : 4:2:0 Bit depth : 8 bits Scan type : Progressive Bits/(Pixel*Frame) : 0.208 Stream size : 6.93 GiB (57%) Writing library : x264 core 161 r3018 db0d417 Encoding settings : cabac=1 / ref=4 / deblock=1:1:1 / analyse=0x3:0x133 / me=umh / subme=9 / psy=1 / psy_rd=0.50:0.00 / mixed_ref=1 / me_range=32 / chroma_me=1 / trellis=2 / 8x8dct=1 / cqm=0 / deadzone=21,11 / fast_pskip=0 / chroma_qp_offset=-2 / threads=24 / lookahead_threads=2 / sliced_threads=0 / nr=0 / decimate=1 / interlaced=0 / bluray_compat=0 / constrained_intra=0 / bframes=5 / b_pyramid=2 / b_adapt=2 / b_bias=0 / direct=3 / weightb=1 / open_gop=0 / weightp=2 / keyint=250 / keyint_min=23 / scenecut=40 / intra_refresh=0 / rc=crf / mbtree=0 / crf=16.0 / qcomp=0.60 / qpmin=0 / qpmax=69 / qpstep=4 / ip_ratio=1.40 / pb_ratio=1.30 / aq=3:0.90 Default : Yes Forced : No Color range : Limited Matrix coefficients : BT.709 Audio #1 ID : 2 Format : DTS XLL Format/Info : Digital Theater Systems Commercial name : DTS-HD Master Audio Codec ID : A_DTS Duration : 1 h 35 min Bit rate mode : Variable Bit rate : 3 861 kb/s Channel(s) : 6 channels Channel layout : C L R Ls Rs LFE Sampling rate : 48.0 kHz Frame rate : 93.750 FPS (512 SPF) Bit depth : 24 bits Compression mode : Lossless Stream size : 2.59 GiB (21%) Title : Japanese Language : Japanese Default : Yes Forced : No Audio #2 ID : 3 Format : DTS XLL Format/Info : Digital Theater Systems Commercial name : DTS-HD Master Audio Codec ID : A_DTS Duration : 1 h 35 min Bit rate mode : Variable Bit rate : 3 891 kb/s Channel(s) : 6 channels Channel layout : C L R Ls Rs LFE Sampling rate : 48.0 kHz Frame rate : 93.750 FPS (512 SPF) Bit depth : 24 bits Compression mode : Lossless Stream size : 2.61 GiB (21%) Title : English Dub Language : English Default : No Forced : No Text #1 ID : 4 Format : UTF-8 Codec ID : S_TEXT/UTF8 Codec ID/Info : UTF-8 Plain Text Duration : 1 h 30 min Bit rate : 66 b/s Count of elements : 1188 Stream size : 44.0 KiB (0%) Title : English Forced Language : English Default : Yes Forced : Yes Text #2 ID : 5 Format : UTF-8 Codec ID : S_TEXT/UTF8 Codec ID/Info : UTF-8 Plain Text Duration : 1 h 28 min Bit rate : 0 b/s Count of elements : 18 Stream size : 514 Bytes (0%) Title : English Forced for English Dub Language : English Default : No Forced : No Text #3 ID : 6 Format : PGS Muxing mode : zlib Codec ID : S_HDMV/PGS Codec ID/Info : Picture based subtitle format used on BDs/HD-DVDs Duration : 1 h 34 min Bit rate : 38.9 kb/s Count of elements : 3493 Stream size : 26.4 MiB (0%) Language : English Default : No Forced : No Text #4 ID : 7 Format : PGS Muxing mode : zlib Codec ID : S_HDMV/PGS Codec ID/Info : Picture based subtitle format used on BDs/HD-DVDs Duration : 1 h 34 min Bit rate : 30.7 kb/s Count of elements : 2377 Stream size : 20.8 MiB (0%) Language : English Default : No Forced : No Text #5 ID : 8 Format : PGS Muxing mode : zlib Codec ID : S_HDMV/PGS Codec ID/Info : Picture based subtitle format used on BDs/HD-DVDs Duration : 1 h 34 min Bit rate : 32.4 kb/s Count of elements : 2373 Stream size : 21.9 MiB (0%) Language : Spanish Default : No Forced : No Text #6 ID : 9 Format : PGS Muxing mode : zlib Codec ID : S_HDMV/PGS Codec ID/Info : Picture based subtitle format used on BDs/HD-DVDs Duration : 1 h 34 min Bit rate : 33.4 kb/s Count of elements : 2377 Stream size : 22.6 MiB (0%) Language : French Default : No Forced : No Text #7 ID : 10 Format : PGS Muxing mode : zlib Codec ID : S_HDMV/PGS Codec ID/Info : Picture based subtitle format used on BDs/HD-DVDs Duration : 1 h 33 min Bit rate : 487 b/s Count of elements : 37 Stream size : 332 KiB (0%) Language : English Default : No Forced : No Menu 00:00:00.000 : en:Chapter 01 00:06:45.405 : en:Chapter 02 00:12:07.644 : en:Chapter 03 00:18:27.064 : en:Chapter 04 00:24:34.014 : en:Chapter 05 00:31:26.009 : en:Chapter 06 00:37:06.182 : en:Chapter 07 00:42:39.390 : en:Chapter 08 00:50:06.253 : en:Chapter 09 00:57:33.450 : en:Chapter 10 01:02:21.404 : en:Chapter 11 01:07:57.365 : en:Chapter 12 01:13:41.208 : en:Chapter 13 01:18:44.637 : en:Chapter 14 01:23:41.266 : en:Chapter 15 01:28:18.668 : en:Chapter 16 01:31:59.848 : en:Chapter 17 Enjoy!

File list

  • Ride.Your.Wave.2019.1080p.BluRay.x264-WUTANG[rarbg]
    • RARBG.txt (30 Bytes)
    • RARBG_DO_NOT_MIRROR.exe (99 Bytes)
    • ride.your.wave.2019.1080p.bluray.x264-wutang.jpg (216.6 KiB)
    • ride.your.wave.2019.1080p.bluray.x264-wutang.mkv (12.2 GiB)
    • ride.your.wave.2019.1080p.bluray.x264-wutang.nfo (2.4 KiB)