[AnimeHEVC] Shelter [BD 1080p 10bit][x265 HEVC][Eng Sub]

Category:
Date:
2020-07-25 13:19 UTC
Submitter:
Seeders:
1
Information:
Leechers:
0
File size:
60.7 MiB
Completed:
207
Info hash:
7f817d50c25b36c7e8ac19d352b3ae25a9946359
[AnimeHEVC] Shelter [BD 1080p][x265 HEVC][Eng Sub] Encode Settings - Preset - Slow CRF - 8/20 Encoded by - Praveen Media Info - General Unique ID : 71667179040151489109118896664473047523 (0x35EA98BBB74C03C4E5A3B64E671911E3) Complete name : /home/anime/Videos/[AnimeHEVC] Shelter [BD 1080p][x265 HEVC][Eng Sub].mkv Format : Matroska Format version : Version 4 File size : 60.7 MiB Duration : 6 min 7 s Overall bit rate mode : Variable Overall bit rate : 1 385 kb/s Writing application : Lavf58.29.100 Writing library : Lavf58.29.100 ErrorDetectionType : Per level 1 Video ID : 1 Format : HEVC Format/Info : High Efficiency Video Coding Format profile : Main 10@L4@Main Codec ID : V_MPEGH/ISO/HEVC Duration : 6 min 7 s Bit rate : 3 320 kb/s Width: 1 920 pixels Height : 1 080 pixels Display aspect ratio : 16:9 Frame rate mode : Constant Frame rate : 23.976 (23976/1000) FPS Original frame rate : 23.976 (24000/1001) FPS Color space : YUV Chroma subsampling : 4:2:0 Bit depth : 10 bits Bits/(Pixel*Frame) : 0.067 Stream size : 145 MiB Writing library : x265 3.2.1+1-b5c86a64bbbe:[Linux][GCC 9.3.0][64 bit] 10bit Encoding settings : cpuid=1111039 / frame-threads=2 / wpp / no-pmode / no-pme / no-psnr / no-ssim / log-level=2 / input-csp=1 / input-res=1920x1080 / interlace=0 / total-frames=0 / level-idc=0 / high-tier=1 / uhd-bd=0 / ref=4 / no-allow-non-conformance / no-repeat-headers / annexb / no-aud / no-hrd / info / hash=0 / no-temporal-layers / open-gop / min-keyint=23 / keyint=250 / gop-lookahead=0 / bframes=4 / b-adapt=2 / b-pyramid / bframe-bias=0 / rc-lookahead=25 / lookahead-slices=4 / scenecut=40 / radl=0 / no-splice / no-intra-refresh / ctu=64 / min-cu-size=8 / rect / no-amp / max-tu-size=32 / tu-inter-depth=1 / tu-intra-depth=1 / limit-tu=0 / rdoq-level=2 / dynamic-rd=0.00 / no-ssim-rd / signhide / no-tskip / nr-intra=0 / nr-inter=0 / no-constrained-intra / strong-intra-smoothing / max-merge=3 / limit-refs=3 / limit-modes / me=3 / subme=3 / merange=57 / temporal-mvp / no-hme / weightp / no-weightb / no-analyze-src-pics / deblock=0:0 / sao / no-sao-non-deblock / rd=4 / selective-sao=4 / no-early-skip / rskip / no-fast-intra / no-tskip-fast / no-cu-lossless / no-b-intra / no-splitrd-skip / rdpenalty=0 / psy-rd=2.00 / psy-rdoq=1.00 / no-rd-refine / no-lossless / cbqpoffs=0 / crqpoffs=0 / rc=crf / crf=8.0 / qcomp=0.60 / qpstep=4 / stats-write=0 / stats-read=0 / ipratio=1.40 / pbratio=1.30 / aq-mode=2 / aq-strength=1.00 / cutree / zone-count=0 / no-strict-cbr / qg-size=32 / no-rc-grain / qpmax=69 / qpmin=0 / no-const-vbv / sar=1 / overscan=0 / videoformat=5 / range=0 / colorprim=2 / transfer=2 / colormatrix=2 / chromaloc=0 / display-window=0 / cll=0,0 / min-luma=0 / max-luma=1023 / log2-max-poc-lsb=8 / vui-timing-info / vui-hrd-info / slices=1 / no-opt-qp-pps / no-opt-ref-list-length-pps / no-multi-pass-opt-rps / scenecut-bias=0.05 / no-opt-cu-delta-qp / no-aq-motion / no-hdr / no-hdr-opt / no-dhdr10-opt / no-idr-recovery-sei / analysis-reuse-level=5 / scale-factor=0 / refine-intra=0 / refine-inter=0 / refine-mv=1 / refine-ctu-distortion=0 / no-limit-sao / ctu-info=0 / no-lowpass-dct / refine-analysis-type=0 / copy-pic=1 / max-ausize-factor=1.0 / no-dynamic-refine / no-single-sei / no-hevc-aq / no-svt / no-field / qp-adaptation-range=1.00 Language : Japanese Default : Yes Forced : No Color range : Limited Audio ID : 2 Format : Vorbis Format settings, Floor : 1 Codec ID : A_VORBIS Duration : 6 min 7 s Bit rate mode : Variable Bit rate : 112 kb/s Channel(s) : 2 channels Sampling rate : 48.0 kHz Frame rate : 11.718 FPS (4096 SPF) Stream size : 37.0 MiB (61%) Writing application : Lavc58.54.100 Writing library : libVorbis (Now 100% fewer shells) (20180316 (Now 100% fewer shells)) Language : Japanese Default : Yes Forced : No Text ID : 3 Format : ASS Codec ID : S_TEXT/ASS Codec ID/Info : Advanced Sub Station Alpha Duration : 5 min 41 s Compression mode : Lossless Default : No Forced : No

File list

  • [AnimeHEVC] Shelter [BD 1080p][x265 HEVC][Eng Sub].mkv (60.7 MiB)

AnimeXHEVC (uploader)

User
Seed after download