[neoHEVC] Minami-ke: Tadaima [Season 4 + OVA] [BD 1080p x265 HEVC AAC]

Category:
Date:
2020-07-25 09:14 UTC
Submitter:
Seeders:
19
Information:
Leechers:
1
File size:
3.7 GiB
Completed:
2436
Info hash:
7d7c63d81a897858f76db4570d08520ea7abe000
![](https://i.imgur.com/geEFUkn.png) *Join **[Discord](https://discord.gg/KYKYZUh)** for Current Projects, Encode-Requests and Seed-Request in case of no available seeds.* **Minami-ke: Tadaima [Season 4]** Including *Minami-ke: OVAs (Betsubara, Omatase, Natsuyasumi) [DVD 1024x576]* *with `Jpn Dub` and `Eng Subs` in `BD 1080p HEVC`* Reencode of [Moozzi2] (x264 AVC FLAC) to (x265 HEVC AAC) with added subtitles from [FFF]. Ⓜ️ [Minami-ke: Tadaima [Season 4] on MAL](https://myanimelist.net/anime/14511/Minami-ke_Tadaima) Ⓜ️ [Minami-ke: OVA - Betsubara on MAL](https://myanimelist.net/anime/5713/Minami-ke_Betsubara) Ⓜ️ [Minami-ke: OVA - Omatase on MAL](https://myanimelist.net/anime/14575/Minami-ke_Omatase) Ⓜ️ [Minami-ke: OVA - Natsuyasumi on MAL](https://myanimelist.net/anime/20221/Minami-ke_Natsuyasumi) --- **Related Releases:** 1️⃣ [Season 1: Minami-ke](https://nyaa.si/view/1264083) 2️⃣ [Season 2: Minami-ke: Okawari](https://nyaa.si/view/1265180) 3️⃣ [Season 3: Minami-ke: Okaeri](https://nyaa.si/view/1264739) --- **View Order** - Minami-ke - Minami-ke: Okawari - Minami-ke: Okaeri + OVA: Betsubara - Minami-ke: OVA: Omatase - Minami-ke: Tadaima - Minami-ke: OVA: Natsuyasumi --- **Synopsis** The everyday lives of the Minami sisters continue. Chiaki, the youngest, continues to call people idiots while worshipping her eldest sister. Kana, the middle, still can't figure out that Fujioka's feelings for her are a crush, not a grudge. Haruka, the eldest, still unknowingly avoids Hosaka's advances to invite her to the volleyball team, and after a long day of excitement, the sisters enjoy sitting at the table at their home. ![](https://i.imgur.com/qyP7N0p.png) --- **Comparison** (avc: source, hevc: encode) *Open links, toggle with mouseclick and check title.* [![](https://i.imgur.com/yJeiVRt.png)](https://slow.pics/c/7F49H3IK) [![](https://i.imgur.com/pamJNi1.png)](https://slow.pics/c/7CC5KMyO) [![](https://i.imgur.com/KgAGzcP.png)](https://slow.pics/c/CoVPaKbo) --- **Source** ?️ Season: Video and Audio: [Moozzi2] https://nyaa.si/view/852755 ?️ Season: Subs: [FFF] https://nyaa.si/view/475919 ?️ OVAs: Video and Audio: [Moozzi2] https://nyaa.si/view/852751 ?️ OVA Betsubara: Subs: [Chihiro-Sprocket] https://nyaa.si/view/448294 ?️ OVA Omatase & Natsuyasumi Subs: [hi10] https://nyaa.si/view/1009880 ?*Subtitles Info: Season [FFF], Betsbara [Chihiro-Sprocket], Omatase [Ahodomo], Natsuyasumi [Chihiro] - Format `ASS`* --- **Media Info** ``` General Unique ID : 137050612824920900008365788949436565854 (0x671AFCE7E815E6925C3211E6C78E095E) Complete name : Minami-ke Tadaima - S04E01.mkv Format : Matroska Format version : Version 4 File size : 220 MiB Duration : 23 min 45 s Overall bit rate : 1 295 kb/s Movie name : Minami-ke Tadaima - S04E01 Encoded date : UTC 2020-07-25 07:07:15 Writing application : mkvmerge v47.0.0 ('Black Flag') 64-bit Writing library : libebml v1.3.10 + libmatroska v1.5.2 / Lavf58.47.100 Attachments : CABIN-BOLD.TTF / CABIN-BOLDITALIC.TTF / Fertigo_PRO.otf / Geometry Soft Pro-Bold N.otf / hebarrounded-normal.ttf / INCOLHUA_R.ttf / Jose Fernandez.ttf / KOMTXT_.ttf / KOMTXTB.ttf / PPETRIAL.otf / SETFIRETOTHERAIN.TTF / square-721-blk-normal-2.ttf / Station.ttf / accidental.ttf Video ID : 1 Format : HEVC Format/Info : High Efficiency Video Coding Format profile : Main 10@L4@High Codec ID : V_MPEGH/ISO/HEVC Duration : 23 min 36 s Bit rate : 1 090 kb/s Width : 1 920 pixels Height : 1 080 pixels Display aspect ratio : 16:9 Frame rate mode : Constant Frame rate : 23.976 (24000/1001) FPS Color space : YUV Chroma subsampling : 4:2:0 Bit depth : 10 bits Bits/(Pixel*Frame) : 0.022 Stream size : 184 MiB (84%) Writing library : x265 3.2.1+1-b5c86a64bbbe:[Windows][GCC 9.2.0][64 bit] 10bit Encoding settings : cpuid=1111039 / frame-threads=2 / numa-pools=4 / wpp / no-pmode / no-pme / no-psnr / no-ssim / log-level=2 / input-csp=1 / input-res=1920x1080 / interlace=0 / total-frames=0 / level-idc=40 / high-tier=1 / uhd-bd=0 / ref=5 / no-allow-non-conformance / no-repeat-headers / annexb / no-aud / no-hrd / info / hash=0 / no-temporal-layers / open-gop / min-keyint=24 / keyint=240 / gop-lookahead=0 / bframes=8 / b-adapt=2 / b-pyramid / bframe-bias=0 / rc-lookahead=25 / lookahead-slices=4 / scenecut=40 / radl=0 / no-splice / no-intra-refresh / ctu=64 / min-cu-size=8 / rect / no-amp / max-tu-size=32 / tu-inter-depth=1 / tu-intra-depth=1 / limit-tu=0 / rdoq-level=2 / dynamic-rd=0.00 / no-ssim-rd / signhide / no-tskip / nr-intra=0 / nr-inter=0 / no-constrained-intra / strong-intra-smoothing / max-merge=3 / limit-refs=3 / limit-modes / me=3 / subme=3 / merange=57 / temporal-mvp / no-hme / weightp / no-weightb / no-analyze-src-pics / deblock=0:0 / sao / no-sao-non-deblock / rd=4 / selective-sao=4 / no-early-skip / rskip / no-fast-intra / no-tskip-fast / no-cu-lossless / no-b-intra / no-splitrd-skip / rdpenalty=0 / psy-rd=0.00 / psy-rdoq=1.00 / no-rd-refine / no-lossless / cbqpoffs=0 / crqpoffs=0 / rc=crf / crf=21.0 / qcomp=0.60 / qpstep=4 / stats-write=0 / stats-read=0 / vbv-maxrate=30000 / vbv-bufsize=30000 / vbv-init=0.9 / crf-max=0.0 / crf-min=0.0 / ipratio=1.40 / pbratio=1.30 / aq-mode=3 / aq-strength=0.80 / cutree / zone-count=0 / no-strict-cbr / qg-size=32 / no-rc-grain / qpmax=69 / qpmin=0 / no-const-vbv / sar=1 / overscan=0 / videoformat=5 / range=0 / colorprim=1 / transfer=1 / colormatrix=1 / chromaloc=0 / display-window=0 / cll=0,0 / min-luma=0 / max-luma=1023 / log2-max-poc-lsb=8 / vui-timing-info / vui-hrd-info / slices=1 / no-opt-qp-pps / no-opt-ref-list-length-pps / no-multi-pass-opt-rps / scenecut-bias=0.05 / no-opt-cu-delta-qp / no-aq-motion / no-hdr / no-hdr-opt / no-dhdr10-opt / no-idr-recovery-sei / analysis-reuse-level=5 / scale-factor=0 / refine-intra=0 / refine-inter=0 / refine-mv=1 / refine-ctu-distortion=0 / no-limit-sao / ctu-info=0 / no-lowpass-dct / refine-analysis-type=0 / copy-pic=1 / max-ausize-factor=1.0 / no-dynamic-refine / no-single-sei / no-hevc-aq / no-svt / no-field / qp-adaptation-range=1.00 Default : Yes Forced : No Color range : Limited Color primaries : BT.709 Transfer characteristics : BT.709 Matrix coefficients : BT.709 Audio ID : 2 Format : AAC LC Format/Info : Advanced Audio Codec Low Complexity Codec ID : A_AAC-2 Duration : 23 min 45 s Bit rate : 203 kb/s Channel(s) : 2 channels Channel layout : L R Sampling rate : 48.0 kHz Frame rate : 46.875 FPS (1024 SPF) Compression mode : Lossy Delay relative to video : -43 ms Stream size : 34.5 MiB (16%) Title : Stereo - JPN (AAC) Language : Japanese Default : Yes Forced : No Text ID : 3 Format : ASS Codec ID : S_TEXT/ASS Codec ID/Info : Advanced Sub Station Alpha Duration : 23 min 33 s Bit rate : 1 068 b/s Count of elements : 2079 Compression mode : Lossless Stream size : 184 KiB (0%) Title : Dialog - ENG (ASS) Language : English Default : Yes Forced : No Menu 00:00:00.000 : :Prologue 00:02:13.008 : :Opening 00:03:43.014 : :Part A 00:12:36.046 : :Eyecatch 00:12:46.056 : :Part B 00:21:50.059 : :Ending 00:23:20.023 : :Preview ```

File list

  • [neoHEVC] Minami-ke Tadaima + OVAs [Season 4] [BD 1080p x265 HEVC AAC]
    • OVAs
      • Minami-ke OVA 1 - Betsubara.mkv (209.7 MiB)
      • Minami-ke OVA 2 - Omatase.mkv (228.4 MiB)
      • Minami-ke OVA 3 - Natsuyasumi.mkv (192.4 MiB)
    • Minami-ke Tadaima - S04E01.mkv (220.1 MiB)
    • Minami-ke Tadaima - S04E02.mkv (214.7 MiB)
    • Minami-ke Tadaima - S04E03.mkv (243.1 MiB)
    • Minami-ke Tadaima - S04E04.mkv (244.7 MiB)
    • Minami-ke Tadaima - S04E05.mkv (254.6 MiB)
    • Minami-ke Tadaima - S04E06.mkv (272.5 MiB)
    • Minami-ke Tadaima - S04E07.mkv (322.2 MiB)
    • Minami-ke Tadaima - S04E08.mkv (257.0 MiB)
    • Minami-ke Tadaima - S04E09.mkv (222.7 MiB)
    • Minami-ke Tadaima - S04E10.mkv (214.1 MiB)
    • Minami-ke Tadaima - S04E11.mkv (231.2 MiB)
    • Minami-ke Tadaima - S04E12.mkv (242.5 MiB)
    • Minami-ke Tadaima - S04E13.mkv (236.2 MiB)
Thank you very much Do you will do HEVC to anime k-on?

neoborn (uploader)

User
**@Izes** K-ON! is already available in low size [HEVC Dual Audio] from [Bluury] over here: https://nyaa.si/view/1238487 My version would not significantly differ to warrant another upload. I have this one mentioned above in my collection too =)
It's here! Thanks!
@neoborn Thank you I did not search ? I will be waiting for new release :)
thanks a lot!!
god bless you neoHEVC-sama 🙏🙏🙏