[NSBC] Oedo Mononoke Monogatari E02 [HDTV] [1080i]

Category:
Date:
2020-07-24 13:10 UTC
Submitter:
Seeders:
0
Information:
TlNCQy50bwo=
Leechers:
1
File size:
6.4 GiB
Completed:
394
Info hash:
672ed1a9c750123fb9272d0deecfc2433398eb1d
> ### In case there is no seeder, visit [here](https://nosobacrew.wordpress.com/?p=597) ![](https://img.topddl.net/images/2020/07/20/EcY9uvdVcAEcBGu.jpg "") ![](https://img.topddl.net/images/2020/07/24/Oedo-Mononoke-Monogatari-S01E02-1080i-HDTV-AAC-MPEG2-NSBC.mkv_thumbs_2020.07.24_13.07.59.jpg "") ``` General Unique ID : 232673733549280916809233836384063416897 (0xAF0B54C119F62281E5FAC0B93F2D6A41) Complete name : Oedo Mononoke Monogatari S01E02 1080i HDTV AAC MPEG2-NSBC.mkv Format : Matroska Format version : Version 4 File size : 6.43 GiB Duration : 59 min 15 s Overall bit rate mode : Variable Overall bit rate : 15.5 Mb/s Movie name : Oedo Mononoke Monogatari S01E02 1080i HDTV AAC MPEG2-NSBC Encoded date : UTC 2020-07-24 12:58:47 Writing application : mkvmerge v29.0.0 ('Like It Or Not') 64-bit Writing library : libebml v1.3.6 + libmatroska v1.4.9 Copyright : NSBC Comment : NeoN | NSBC DATE_RECORDED : 2020 WEBSITE : NSBC.to Video ID : 1 Format : MPEG Video Format version : Version 2 Format profile : Main@High Format settings : CustomMatrix / BVOP Format settings, BVOP : Yes Format settings, Matrix : Custom Format settings, GOP : M=3, N=15 Format settings, picture structure : Frame Codec ID : V_MPEG2 Codec ID/Info : MPEG 1 or 2 Video Duration : 59 min 15 s Bit rate mode : Variable Bit rate : 15.2 Mb/s Maximum bit rate : 24.0 Mb/s Width : 1 920 pixels Height : 1 080 pixels Display aspect ratio : 16:9 Frame rate mode : Constant Frame rate : 29.970 (30000/1001) FPS Color space : YUV Chroma subsampling : 4:2:0 Bit depth : 8 bits Scan type : Interlaced Scan order : Top Field First Compression mode : Lossy Bits/(Pixel*Frame) : 0.244 Time code of first frame : 06:04:01;02 Time code source : Group of pictures header Stream size : 6.27 GiB (98%) Title : [NSBC] Default : Yes Forced : No Color primaries : BT.709 Transfer characteristics : BT.709 Matrix coefficients : BT.709 Audio #1 ID : 2 Format : AAC LC Format/Info : Advanced Audio Codec Low Complexity Codec ID : A_AAC-2 Duration : 59 min 15 s Bit rate : 192 kb/s Channel(s) : 2 channels Channel layout : L R Sampling rate : 48.0 kHz Frame rate : 46.875 FPS (1024 SPF) Compression mode : Lossy Delay relative to video : 8 ms Stream size : 80.3 MiB (1%) Title : [NSBC] Language : Japanese Default : Yes Forced : No Audio #2 ID : 3 Format : AAC LC Format/Info : Advanced Audio Codec Low Complexity Codec ID : A_AAC-2 Duration : 59 min 6 s Bit rate : 192 kb/s Channel(s) : 2 channels Channel layout : L R Sampling rate : 48.0 kHz Frame rate : 46.875 FPS (1024 SPF) Compression mode : Lossy Delay relative to video : 8 ms Stream size : 80.1 MiB (1%) Title : [NSBC] Language : Japanese Default : No Forced : No ```

File list

  • Oedo Mononoke Monogatari S01E02 1080i HDTV AAC MPEG2-NSBC.mkv (6.4 GiB)
Hi I'm waiting for ep04 coming