[NSBC] Ashi Girl SP [HDTV] [1080i]

Category:
Date:
2020-07-23 23:05 UTC
Submitter:
Seeders:
1
Information:
TlNCQy50bwo=
Leechers:
0
File size:
6.2 GiB
Completed:
460
Info hash:
e1255399c63f2aa8c241851817527fe62eca57a4
> ### In case there is no seeder, visit [here](https://wp.me/paqy5v-au) ![](https://img.topddl.net/images/2020/07/24/Y81LZGQV49-eyecatch_8cd3ad116c18b039fae8fe79505a1428.jpg "") ![](https://img.topddl.net/images/2020/07/24/Ashi-Girl-SP-1080i-HDTV-AAC-MPEG2-NSBC.mkv.jpg "") ``` General Unique ID : 140300048473057391585639781367390943557 (0x698CCE73DB2B16992591B9599C243945) Complete name : Ashi Girl SP 1080i HDTV AAC MPEG2-NSBC.mkv Format : Matroska Format version : Version 4 File size : 6.17 GiB Duration : 1 h 29 min Overall bit rate mode : Variable Overall bit rate : 9 921 kb/s Movie name : Ashi Girl SP 1080i HDTV AAC MPEG2-NSBC Encoded by : MoMo | NSBC Encoded date : UTC 2020-07-23 22:56:27 Writing application : mkvmerge v29.0.0 ('Like It Or Not') 64-bit Writing library : libebml v1.3.6 + libmatroska v1.4.9 Copyright : NSBC Comment : MoMo | NSBC DATE_RECORDED : 2020 WEBSITE : NSBC.to Video ID : 1 Format : MPEG Video Format version : Version 2 Format profile : Main@High Format settings : CustomMatrix / BVOP Format settings, BVOP : Yes Format settings, Matrix : Custom Format settings, GOP : M=3, N=15 Format settings, picture structure : Frame Codec ID : V_MPEG2 Codec ID/Info : MPEG 1 or 2 Video Duration : 1 h 29 min Bit rate mode : Variable Bit rate : 9 538 kb/s Maximum bit rate : 20.0 Mb/s Width : 1 440 pixels Height : 1 080 pixels Display aspect ratio : 16:9 Frame rate mode : Constant Frame rate : 29.970 (30000/1001) FPS Color space : YUV Chroma subsampling : 4:2:0 Bit depth : 8 bits Scan type : Interlaced Scan order : Top Field First Compression mode : Lossy Bits/(Pixel*Frame) : 0.205 Time code of first frame : 16:04:51;12 Time code source : Group of pictures header GOP, Open/Closed : Open GOP, Open/Closed of first frame : Closed Stream size : 5.93 GiB (96%) Title : [NSBC] Default : Yes Forced : No Color primaries : BT.709 Transfer characteristics : BT.709 Matrix coefficients : BT.709 Audio #1 ID : 2 Format : AAC LC Format/Info : Advanced Audio Codec Low Complexity Codec ID : A_AAC-2 Duration : 1 h 29 min Bit rate : 192 kb/s Channel(s) : 2 channels Channel layout : L R Sampling rate : 48.0 kHz Frame rate : 46.875 FPS (1024 SPF) Compression mode : Lossy Delay relative to video : 7 ms Stream size : 121 MiB (2%) Title : [NSBC] Language : Japanese Default : Yes Forced : No Audio #2 ID : 3 Format : AAC LC Format/Info : Advanced Audio Codec Low Complexity Codec ID : A_AAC-2 Duration : 1 h 29 min Bit rate : 192 kb/s Channel(s) : 2 channels Channel layout : L R Sampling rate : 48.0 kHz Frame rate : 46.875 FPS (1024 SPF) Compression mode : Lossy Delay relative to video : 7 ms Stream size : 121 MiB (2%) Title : [NSBC] Language : Japanese Default : No Forced : No Text ID : 4 Format : UTF-8 Codec ID : S_TEXT/UTF8 Codec ID/Info : UTF-8 Plain Text Duration : 1 h 28 min Bit rate : 58 b/s Count of elements : 842 Stream size : 38.3 KiB (0%) Title : [NSBC] Language : Japanese Default : No Forced : No ```

File list

  • Ashi Girl SP 1080i HDTV AAC MPEG2-NSBC.mkv (6.2 GiB)
thanks for sharing!!! but it's no speed...
DDL - https://mega.nz/file/Cpc0CISC#_Czbjp6OoRUTVJ_T3sZV-I5iw5ZTJrxBRG5E0b_gPqI