[NSBC] Kyou no Nekomura-san SP [HDTV] [1080i]

Category:
Date:
2020-07-22 12:11 UTC
Submitter:
Seeders:
4
Information:
TlNCQy50bwo=
Leechers:
0
File size:
2.8 GiB
Completed:
448
Info hash:
1f965adfc3afccba6ea80592b5e9153ca9c70ded
![](https://img.topddl.net/images/2020/07/22/1875699_w1040_1.jpg "") ![](https://img.topddl.net/images/2020/07/22/Kyou-no-Nekomura-san-2020-SP-1080i-HDTV-AAC-MPEG2-NSBC.mkv.jpg "") ``` General Unique ID : 312092060662241118579054403346176516692 (0xEACABE97C7E947C90EDD7849D15DA254) Complete name : Kyou no Nekomura-san 2020 SP 1080i HDTV AAC MPEG2-NSBC.mkv Format : Matroska Format version : Version 4 File size : 2.84 GiB Duration : 29 min 29 s Overall bit rate mode : Variable Overall bit rate : 13.8 Mb/s Movie name : Kyou no Nekomura-san 2020 SP 1080i HDTV AAC MPEG2-NSBC Encoded by : MoMo | NSBC Encoded date : UTC 2020-07-22 12:03:09 Writing application : mkvmerge v29.0.0 ('Like It Or Not') 64-bit Writing library : libebml v1.3.6 + libmatroska v1.4.9 Copyright : NSBC Comment : MoMo | NSBC DATE_RECORDED : 2020 WEBSITE : NSBC.to Video ID : 1 Format : MPEG Video Format version : Version 2 Format profile : Main@High Format settings : CustomMatrix / BVOP Format settings, BVOP : Yes Format settings, Matrix : Custom Format settings, GOP : M=3, N=15 Format settings, picture structure : Frame Codec ID : V_MPEG2 Codec ID/Info : MPEG 1 or 2 Video Duration : 29 min 29 s Bit rate mode : Variable Bit rate : 13.6 Mb/s Maximum bit rate : 20.0 Mb/s Width : 1 440 pixels Height : 1 080 pixels Display aspect ratio : 16:9 Frame rate mode : Constant Frame rate : 29.970 (30000/1001) FPS Color space : YUV Chroma subsampling : 4:2:0 Bit depth : 8 bits Scan type : Interlaced Scan order : Top Field First Compression mode : Lossy Bits/(Pixel*Frame) : 0.291 Time code of first frame : 06:52:16;10 Time code source : Group of pictures header GOP, Open/Closed : Open GOP, Open/Closed of first frame : Closed Stream size : 2.80 GiB (99%) Title : [NSBC] Default : Yes Forced : No Color primaries : BT.709 Transfer characteristics : BT.709 Matrix coefficients : BT.709 Audio ID : 2 Format : AAC LC Format/Info : Advanced Audio Codec Low Complexity Codec ID : A_AAC-2 Duration : 29 min 29 s Bit rate : 192 kb/s Channel(s) : 2 channels Channel layout : L R Sampling rate : 48.0 kHz Frame rate : 46.875 FPS (1024 SPF) Compression mode : Lossy Delay relative to video : 14 ms Stream size : 40.0 MiB (1%) Title : [NSBC] Language : Japanese Default : Yes Forced : No ```

File list

  • Kyou no Nekomura-san 2020 SP 1080i HDTV AAC MPEG2-NSBC.mkv (2.8 GiB)
MSSSIVE THANKS for this.