[neoHEVC] Minami-ke: Okaeri [Season 3] [BD 1080p x265 HEVC AAC]

Category:
Date:
2020-07-21 19:33 UTC
Submitter:
Seeders:
21
Information:
Leechers:
0
File size:
2.8 GiB
Completed:
2551
Info hash:
fe9e2ecad5d08eb8273da44854528216940890ce
![](https://i.imgur.com/geEFUkn.png) *Join **[Discord](https://discord.gg/KYKYZUh)** for Current Projects, Encode-Requests and Seed-Request in case of no available seeds.* **Minami-ke: Okaeri [Season 3]** *with `Jpn Dub` and `Eng Subs` in `BD 1080p HEVC`* Reencode of [Moozzi2] (x264 AVC FLAC) to (x265 HEVC AAC) with added subtitles from [Ayako]. Ⓜ️ [Minami-ke: Okaeri [Season 3] on MAL](https://myanimelist.net/anime/5162/Minami-ke_Okaeri) --- **Related Releases:** 1️⃣ [Season 1: Minami-ke](https://nyaa.si/view/1264083) 2️⃣ [Season 2: Minami-ke: Okawari](https://nyaa.si/view/1265180) 4️⃣ [Season 4: Minami-ke: Tadaima + OVAs](https://nyaa.si/view/1265573) --- **View Order** - Minami-ke - Minami-ke: Okawari - Minami-ke: Okaeri + OVA: Betsubara - Minami-ke: OVA: Omatase - Minami-ke: Tadaima - Minami-ke: OVA: Natsuyasumi --- **Synopsis** A year has passed since Okawari and the three sisters have grown up. Their likings and moods are almost the same. Haruka, the older sister, is a love-giving mother to the younger sisters and a discipline follower. Kana, the middle one, leaves everything to the last possible moment and always gives trouble to the trio. Chiaki, the little one, is the calculating and manipulating one; she likes to be admired and loved by Haruka and always gives trouble to the less blessed Kana. Despite being an unbalanced family, they love each other with all their heart. The family's daily life is as funny as ever; trouble and love are always present. Now it's time to see if they'll survive this age change since Haruka is now a young adult; she has even more responsibilities, having to watch over the young while integrating into the adult life. ![](https://i.imgur.com/rnKuHRF.png) --- **Comparison** (avc: source, hevc: encode) *Open links, toggle with mouseclick and check title.* [![](https://i.imgur.com/yXTHxnc.png)](https://slow.pics/c/MQgysGJ0) [![](https://i.imgur.com/NoqLA8f.png)](https://slow.pics/c/qw5lykvS) [![](https://i.imgur.com/B8xP6wO.png)](https://slow.pics/c/6kHtffWk) --- **Source** ?️ Video and Audio: [Moozzi2] https://nyaa.si/view/852754 ?️ Subs: [GS] https://nyaa.si/view/745529 ? *Subtitles Info: [Ayako] - Format `ASS`* --- **Media Info** ``` General Unique ID : 321616911122678590446537055891690165980 (0xF1F529FA482DEFA31800CE9A5BB116DC) Complete name : Minami-ke Okaeri - S02E01.mkv Format : Matroska Format version : Version 4 File size : 230 MiB Duration : 23 min 48 s Overall bit rate : 1 352 kb/s Movie name : Minami-ke Okaeri - S02E01 Encoded date : UTC 2020-07-21 19:16:16 Writing application : mkvmerge v47.0.0 ('Black Flag') 64-bit Writing library : libebml v1.3.10 + libmatroska v1.5.2 / Lavf58.47.100 Attachments : Amaranth-Bold.otf Video ID : 1 Format : HEVC Format/Info : High Efficiency Video Coding Format profile : Main 10@L4@High Codec ID : V_MPEGH/ISO/HEVC Duration : 23 min 47 s Bit rate : 1 150 kb/s Width : 1 920 pixels Height : 1 080 pixels Display aspect ratio : 16:9 Frame rate mode : Constant Frame rate : 23.976 (24000/1001) FPS Color space : YUV Chroma subsampling : 4:2:0 Bit depth : 10 bits Bits/(Pixel*Frame) : 0.023 Stream size : 196 MiB (85%) Writing library : x265 3.2.1+1-b5c86a64bbbe:[Windows][GCC 9.2.0][64 bit] 10bit Encoding settings : cpuid=1111039 / frame-threads=2 / numa-pools=4 / wpp / no-pmode / no-pme / no-psnr / no-ssim / log-level=2 / input-csp=1 / input-res=1920x1080 / interlace=0 / total-frames=0 / level-idc=40 / high-tier=1 / uhd-bd=0 / ref=5 / no-allow-non-conformance / no-repeat-headers / annexb / no-aud / no-hrd / info / hash=0 / no-temporal-layers / open-gop / min-keyint=24 / keyint=240 / gop-lookahead=0 / bframes=8 / b-adapt=2 / b-pyramid / bframe-bias=0 / rc-lookahead=25 / lookahead-slices=4 / scenecut=40 / radl=0 / no-splice / no-intra-refresh / ctu=64 / min-cu-size=8 / rect / no-amp / max-tu-size=32 / tu-inter-depth=1 / tu-intra-depth=1 / limit-tu=0 / rdoq-level=2 / dynamic-rd=0.00 / no-ssim-rd / signhide / no-tskip / nr-intra=0 / nr-inter=0 / no-constrained-intra / strong-intra-smoothing / max-merge=3 / limit-refs=3 / limit-modes / me=3 / subme=3 / merange=57 / temporal-mvp / no-hme / weightp / no-weightb / no-analyze-src-pics / deblock=0:0 / sao / no-sao-non-deblock / rd=4 / selective-sao=4 / no-early-skip / rskip / no-fast-intra / no-tskip-fast / no-cu-lossless / no-b-intra / no-splitrd-skip / rdpenalty=0 / psy-rd=0.00 / psy-rdoq=1.00 / no-rd-refine / no-lossless / cbqpoffs=0 / crqpoffs=0 / rc=crf / crf=21.0 / qcomp=0.60 / qpstep=4 / stats-write=0 / stats-read=0 / vbv-maxrate=30000 / vbv-bufsize=30000 / vbv-init=0.9 / crf-max=0.0 / crf-min=0.0 / ipratio=1.40 / pbratio=1.30 / aq-mode=3 / aq-strength=0.80 / cutree / zone-count=0 / no-strict-cbr / qg-size=32 / no-rc-grain / qpmax=69 / qpmin=0 / no-const-vbv / sar=1 / overscan=0 / videoformat=5 / range=0 / colorprim=1 / transfer=1 / colormatrix=1 / chromaloc=0 / display-window=0 / cll=0,0 / min-luma=0 / max-luma=1023 / log2-max-poc-lsb=8 / vui-timing-info / vui-hrd-info / slices=1 / no-opt-qp-pps / no-opt-ref-list-length-pps / no-multi-pass-opt-rps / scenecut-bias=0.05 / no-opt-cu-delta-qp / no-aq-motion / no-hdr / no-hdr-opt / no-dhdr10-opt / no-idr-recovery-sei / analysis-reuse-level=5 / scale-factor=0 / refine-intra=0 / refine-inter=0 / refine-mv=1 / refine-ctu-distortion=0 / no-limit-sao / ctu-info=0 / no-lowpass-dct / refine-analysis-type=0 / copy-pic=1 / max-ausize-factor=1.0 / no-dynamic-refine / no-single-sei / no-hevc-aq / no-svt / no-field / qp-adaptation-range=1.00 Default : Yes Forced : No Color range : Limited Color primaries : BT.709 Transfer characteristics : BT.709 Matrix coefficients : BT.709 Audio ID : 2 Format : AAC LC Format/Info : Advanced Audio Codec Low Complexity Codec ID : A_AAC-2 Duration : 23 min 47 s Bit rate : 200 kb/s Channel(s) : 2 channels Channel layout : L R Sampling rate : 48.0 kHz Frame rate : 46.875 FPS (1024 SPF) Compression mode : Lossy Delay relative to video : -43 ms Stream size : 34.1 MiB (15%) Title : Stereo - JPN (AAC) Language : Japanese Default : Yes Forced : No Text ID : 3 Format : ASS Codec ID : S_TEXT/ASS Codec ID/Info : Advanced Sub Station Alpha Duration : 23 min 47 s Bit rate : 116 b/s Count of elements : 370 Compression mode : Lossless Stream size : 20.3 KiB (0%) Title : Dialog - ENG (ASS) Language : English Default : Yes Forced : No Menu 00:00:00.000 : :Avant 00:04:03.952 : :Part A 00:07:46.674 : :Opening 00:09:16.681 : :Part B 00:13:44.990 : :Part C 00:16:48.424 : :Ending 00:18:18.430 : :Part D 00:23:30.992 : :Preview ```

File list

  • [neoHEVC] Minami-ke Okaeri [Season 2] [BD 1080p x265 HEVC AAC]
    • Minami-ke Okaeri - S02E01.mkv (230.3 MiB)
    • Minami-ke Okaeri - S02E02.mkv (225.1 MiB)
    • Minami-ke Okaeri - S02E03.mkv (202.9 MiB)
    • Minami-ke Okaeri - S02E04.mkv (222.2 MiB)
    • Minami-ke Okaeri - S02E05.mkv (239.8 MiB)
    • Minami-ke Okaeri - S02E06.mkv (197.8 MiB)
    • Minami-ke Okaeri - S02E07.mkv (220.7 MiB)
    • Minami-ke Okaeri - S02E08.mkv (220.3 MiB)
    • Minami-ke Okaeri - S02E09.mkv (215.6 MiB)
    • Minami-ke Okaeri - S02E10.mkv (221.7 MiB)
    • Minami-ke Okaeri - S02E11.mkv (203.1 MiB)
    • Minami-ke Okaeri - S02E12.mkv (242.1 MiB)
    • Minami-ke Okaeri - S02E13.mkv (229.2 MiB)

neoborn (uploader)

User
Mistook Okaeri for season 2. It's actually season 3. Just rename the files and folder on your end to S03E__ :S
Oh! Snap! So this is season 3? Awesome, watched 1 and 2 years ago and got caught up watching other shows. Thanks! I'll give this a watch ASAP.
Nice work! Thank you neoborn
Thanks for this. Are you doing the OVA episodes as well?

neoborn (uploader)

User
**@geha714** ![](https://i.imgur.com/MSA3n87.png) **Will do!**
Is this season2 or season3?

neoborn (uploader)

User
**@Izes** As stated in my first comment: It is **[Season 3]**. Both the **description** as well as the **View Order** have been updated accordingly. Only the filenames are wrong but I can't change those anymore :)
And for the people who migh want episode toitles wit season / episode numbered per season. Season 1 Minami-ke (2007) Episode Titles Minami-ke - Season 1 - Ep01 - The Three Minami Sisters Minami-ke - Season 1 - Ep02 - Weird School Minami-ke - Season 1 - Ep03 - The Delinquent Football Player Returns Minami-ke - Season 1 - Ep04 - The Pattern of Love Minami-ke - Season 1 - Ep05 - Let's Go to the Beach Minami-ke - Season 1 - Ep06 - The Birth of Mako-chan Minami-ke - Season 1 - Ep07 - Various Faces Minami-ke - Season 1 - Ep08 - Hosaka Minami-ke - Season 1 - Ep09 - Three Sister Weather Minami-ke - Season 1 - Ep10 - Boy X Girl Minami-ke - Season 1 - Ep11 - The Neighboring Minamis Minami-ke - Season 1 - Ep12 - Christmas Along with Eve Minami-ke - Season 1 - Ep13 - Fruitless Love
Season 2 Minami-ke: Okawari (2008) Episode Titles Minami-ke - Season 2 - Ep01 - Hot Springs, Let's Eat Here Minami-ke - Season 2 - Ep02 - Flavor is Inherited from Generation to Generation Minami-ke - Season 2 - Ep03 - Evening Hospitality, Extend the Bowl Hesitantly Minami-ke - Season 2 - Ep04 - Is It All Right to Clean Up Minami-ke - Season 2 - Ep05 - Can't Take Back a Served Tea Cup Minami-ke - Season 2 - Ep06 - Has My Rice Already Cooled Down Minami-ke - Season 2 - Ep07 - The More You Chew It, The Sweeter It Becomes Minami-ke - Season 2 - Ep08 - The Pool Gives Me a Second Stomach Minami-ke - Season 2 - Ep09 - Does It Hurt Yet? Secrets of Mako-chan Minami-ke - Season 2 - Ep10 - The Age of Dangos over Flowers Minami-ke - Season 2 - Ep11 - As Expected, It's Getting Bad Minami-ke - Season 2 - Ep12 - Even One Bite More Is Painful Minami-ke - Season 2 - Ep13 - Everyone At Once, 'Thank You for the Meal
Season 3 Minami-ke: Okaeri (2009) Episode Titles Minami-ke - Season 3 - Ep01 - Start of the Year Minami-ke - Season 3 - Ep02 - Me Too Minami-ke - Season 3 - Ep03 - Even In A Quarrel Minami-ke - Season 3 - Ep04 - There Should Be an Order Minami-ke - Season 3 - Ep05 - It's Getting Fun Minami-ke - Season 3 - Ep06 - Let It Be Minami-ke - Season 3 - Ep07 - If You Are Fine With Me Minami-ke - Season 3 - Ep08 - That's a Violation Minami-ke - Season 3 - Ep09 - I See Minami-ke - Season 3 - Ep10 - About Attitude Minami-ke - Season 3 - Ep11 - A Good Image Minami-ke - Season 3 - Ep12 - A Warm Place Minami-ke - Season 3 - Ep13 - Because We're Together
Minami-ke: Betsubara (2009) - OVA Season 4 Minami-ke: Tadaima (2013) Episode Titles Minami-ke - Season 4 - Ep01 - Spring is Here, and So Are the Minamis Minami-ke - Season 4 - Ep02 - Let's Be Ourselves Minami-ke - Season 4 - Ep03 - Simply Put, It's a Roundabout Confession Minami-ke - Season 4 - Ep04 - The Man Sweats Under the Blue Summer Sky Minami-ke - Season 4 - Ep05 - Making Chilled Noodles Minami-ke - Season 4 - Ep06 - A Girl Cannot Hide Her Sunburn, Nor Her Heart Minami-ke - Season 4 - Ep07 - Coming for a Late Summer Visit Minami-ke - Season 4 - Ep08 - Vegetables with Your Merry Friends on Your Day Off Minami-ke - Season 4 - Ep09 - Love Begins Now Minami-ke - Season 4 - Ep10 - We Started Living Green Minami-ke - Season 4 - Ep11 - The Goddess Descends on the Holy Night Minami-ke - Season 4 - Ep12 - Start Planning Your Year from New Year's Day Minami-ke - Season 4 - Ep13 - What's Said Here, Stays Here Minami-ke: Omatase (2012) - OVA Minami-ke: Natsuyasumi (2013) - OVA
@neoborn Thank you very much ?
@Dark-Angle Thank you very much ?