[NSBC] Kyou Kara Ore Wa!! 2020 SP [HDTV] [1080i]

Category:
Date:
2020-07-20 11:34 UTC
Submitter:
Seeders:
4
Information:
TlNCQy50bwo=
Leechers:
2
File size:
8.1 GiB
Completed:
617
Info hash:
1982e0c56074a65575ace8e26c60d1a679145e71
> ### In case there is no seeder, visit [here](https://nosobacrew.wordpress.com/2020/07/18/kyou-kara-ore-wa-sp/) ![](https://img.topddl.net/images/2020/07/18/1410591.jpg "") ![](https://img.topddl.net/images/2020/07/20/Kyou-Kara-Ore-wa-SP-1080i-HDTV-AAC-MPEG2-NSBC.mkv.jpg "") ``` General Unique ID : 177277980991893903632207996513914433056 (0x855E7F48F9EECBBEC0AA798370A3AE20) Complete name : Kyou Kara Ore wa!! SP 1080i HDTV AAC MPEG2-NSBC.mkv Format : Matroska Format version : Version 4 File size : 8.14 GiB Duration : 1 h 35 min Overall bit rate mode : Variable Overall bit rate : 12.2 Mb/s Movie name : Kyou Kara Ore wa!! SP 1080i HDTV AAC MPEG2-NSBC Encoded date : UTC 2020-07-18 01:09:48 Writing application : mkvmerge v29.0.0 ('Like It Or Not') 64-bit Writing library : libebml v1.3.6 + libmatroska v1.4.9 Video ID : 1 Format : MPEG Video Format version : Version 2 Format profile : Main@High Format settings : CustomMatrix / BVOP Format settings, BVOP : Yes Format settings, Matrix : Custom Format settings, GOP : M=3, N=15 Format settings, picture structure : Frame Codec ID : V_MPEG2 Codec ID/Info : MPEG 1 or 2 Video Duration : 1 h 35 min Bit rate mode : Variable Bit rate : 11.8 Mb/s Maximum bit rate : 20.0 Mb/s Width : 1 440 pixels Height : 1 080 pixels Display aspect ratio : 16:9 Frame rate mode : Constant Frame rate : 29.970 (30000/1001) FPS Color space : YUV Chroma subsampling : 4:2:0 Bit depth : 8 bits Scan type : Interlaced Scan order : Top Field First Compression mode : Lossy Bits/(Pixel*Frame) : 0.253 Time code of first frame : 00:00:00:00 Time code source : Group of pictures header GOP, Open/Closed : Open Stream size : 7.89 GiB (97%) Title : [NSBC] Default : Yes Forced : No Color primaries : BT.709 Transfer characteristics : BT.709 Matrix coefficients : BT.709 Audio #1 ID : 2 Format : AAC LC Format/Info : Advanced Audio Codec Low Complexity Codec ID : A_AAC-2 Duration : 1 h 35 min Bit rate : 192 kb/s Channel(s) : 2 channels Channel layout : L R Sampling rate : 48.0 kHz Frame rate : 46.875 FPS (1024 SPF) Compression mode : Lossy Delay relative to video : -3 ms Stream size : 129 MiB (2%) Title : [NSBC] Language : Japanese Default : Yes Forced : No Audio #2 ID : 3 Format : AAC LC Format/Info : Advanced Audio Codec Low Complexity Codec ID : A_AAC-2 Duration : 1 h 35 min Bit rate : 192 kb/s Channel(s) : 2 channels Channel layout : L R Sampling rate : 48.0 kHz Frame rate : 46.875 FPS (1024 SPF) Compression mode : Lossy Delay relative to video : -174 ms Stream size : 129 MiB (2%) Title : [NSBC] Language : Japanese Default : No Forced : No ```

File list

  • Kyou Kara Ore wa!! SP 1080i HDTV AAC MPEG2-NSBC.mkv (8.1 GiB)