[NSBC] Oedo Mononoke Monogatari E01 [HDTV] [1080i]

Category:
Date:
2020-07-20 00:58 UTC
Submitter:
Seeders:
0
Information:
TlNCQy50bwo=
Leechers:
3
File size:
6.4 GiB
Completed:
475
Info hash:
e9860be58b09f55eb1773410929ddd9d1246c344
> ### In case there is no seeder, visit [here](https://nosobacrew.wordpress.com/?p=597) ![](https://img.topddl.net/images/2020/07/20/EcY9uvdVcAEcBGu.jpg "") ![](https://img.topddl.net/images/2020/07/20/Oedo-Mononoke-Monogatari-S01E01-1080i-HDTV-AAC-MPEG2-NSBC.mkv.jpg "") ``` General Unique ID : 217127725055632173233290687806386524797 (0xA359475BC683322FA75AB1E86C58D27D) Complete name : Oedo Mononoke Monogatari S01E01 1080i HDTV AAC MPEG2-NSBC.mkv Format : Matroska Format version : Version 4 File size : 6.41 GiB Duration : 59 min 15 s Overall bit rate mode : Variable Overall bit rate : 15.5 Mb/s Movie name : Oedo Mononoke Monogatari S01E01 1080i HDTV AAC MPEG2-NSBC Encoded date : UTC 2020-07-20 00:43:30 Writing application : mkvmerge v29.0.0 ('Like It Or Not') 64-bit Writing library : libebml v1.3.6 + libmatroska v1.4.9 Copyright : NSBC Comment : NeoN | NSBC DATE_RECORDED : 2020 WEBSITE : NSBC.to Video ID : 1 Format : MPEG Video Format version : Version 2 Format profile : Main@High Format settings : CustomMatrix / BVOP Format settings, BVOP : Yes Format settings, Matrix : Custom Format settings, GOP : M=3, N=15 Codec ID : V_MPEG2 Codec ID/Info : MPEG 1 or 2 Video Duration : 59 min 15 s Bit rate mode : Variable Bit rate : 15.1 Mb/s Maximum bit rate : 24.0 Mb/s Width : 1 920 pixels Height : 1 080 pixels Display aspect ratio : 16:9 Frame rate mode : Variable Frame rate : 35.201 FPS Original frame rate : 29.970 (30000/1001) FPS Color space : YUV Chroma subsampling : 4:2:0 Bit depth : 8 bits Scan type : Interlaced Scan order : Top Field First Compression mode : Lossy Bits/(Pixel*Frame) : 0.207 Time code of first frame : 19:28:54:15 Time code source : Group of pictures header GOP, Open/Closed : Open Stream size : 6.26 GiB (98%) Title : [NSBC] Default : Yes Forced : No Color primaries : BT.709 Transfer characteristics : BT.709 Matrix coefficients : BT.709 Audio #1 ID : 2 Format : AAC LC Format/Info : Advanced Audio Codec Low Complexity Codec ID : A_AAC-2 Duration : 59 min 15 s Bit rate : 192 kb/s Channel(s) : 2 channels Channel layout : L R Sampling rate : 48.0 kHz Frame rate : 46.875 FPS (1024 SPF) Compression mode : Lossy Delay relative to video : -27 ms Stream size : 80.1 MiB (1%) Title : [NSBC] Language : Japanese Default : Yes Forced : No Audio #2 ID : 3 Format : AAC LC Format/Info : Advanced Audio Codec Low Complexity Codec ID : A_AAC-2 Duration : 58 min 57 s Bit rate : 192 kb/s Channel(s) : 2 channels Channel layout : L R Sampling rate : 48.0 kHz Frame rate : 46.875 FPS (1024 SPF) Compression mode : Lossy Delay relative to video : -27 ms Stream size : 79.6 MiB (1%) Title : [NSBC] Language : Japanese Default : No Forced : No ```

File list

  • Oedo Mononoke Monogatari S01E01 1080i HDTV AAC MPEG2-NSBC.mkv (6.4 GiB)
Huge thanks for this.
Do you take requests? Can you upload this [series](https://nyaa.si/user/MagicStar-subs?f=0&c=0_0&q=Koi+wa+Tsuzuku+yo+Dokomademo) in 720p? if possible in web-dl quality.

NOSoba (uploader)

User
> Can you upload this series in 720p? if possible in web-dl quality. When i have free time i will do it
@NOSoba Thank you for reply ^^