[neoHEVC] All Out!! [1080p x265 HEVC AAC] [Dual Audio] [Multi Subs]

Category:
Date:
2020-07-17 22:08 UTC
Submitter:
Seeders:
10
Information:
Leechers:
0
File size:
8.0 GiB
Completed:
802
Info hash:
6e25198e3c49c6ef56b9b1b12341d720a82a9f56
![](https://i.imgur.com/geEFUkn.png) *Join **[Discord](https://discord.gg/KYKYZUh)** for Current Projects, Encode-Requests and Seed-Request in case of no available seeds.* **All Out!!** *with `Dual Audio (Jpn/Eng)` and `Multi Subs` in `1080p HEVC`* Reencode of [Erai-Raws] (x264 AVC AAC) to (x265 HEVC AAC) with added English audio tracks from [Ranger]. The English audio tracks were of different length. After the opening the video source had a clip of roughly 8s of still image with some more main theme song which the English track lacked. I inserted that short section from the JPN track into the ENG track to match them up and then sync it to the video. If you notice anything out-of-sync in the English track, please comment or tell me on Discord so I can fix it. I created an additional English Signs subtitles track from the English Dialog track to go with the added English dub track. Ⓜ️ [All Out!! on MAL](https://myanimelist.net/anime/31588/All_Out) --- **Available Subtitles** • English • Portuguese • Spanish --- **Patch for Default Language / Subtitles Track** This comes with [English audio] and [Signs subtitles] as default tracks. I included an xDelta Patch for those who rather like [Japanese audio] with [Dialog subtitles] as default. > Simply put all the video files into the Patch folder and run the patch file depending on your OS (for Windows: run '*3.Apply Patch-Windows.bat*'). > Consult '*readme.txt*' if you need help. --- **Synopsis** Rugby is a sport where anybody can be a star when they hold the ball. The rules are simple: one player has to carry the ball past the goalposts across the field while avoiding the other team, who are allowed to use all their force to knock the enemy down. However, the player can pass to a teammate behind them or kick the ball before they are tackled. Unlike other sports, the game continues even when the person holding the ball is taken down. Kenji Gion is a short but feisty high school freshman at Kanagawa High School. Right after the school's opening ceremony, he meets the tall and timid Sumiaki Iwashimizu, and the two of them get an invitation to observe the rugby club. When Gion watches the match, he realizes that even though big and tall guys have an advantage, there are positions for people of all shapes and sizes. Immediately convinced that he has found a sport he can excel at despite his short stature, he signs up, though Iwashimizu declines. Gion is unable to accept Iwashimizu's excuses and drags him back into the sport. Their training becomes intense as they aim to become the champions of Hanazono, the national high school rugby championships. ![](https://i.imgur.com/Q251JMj.png) --- **Comparison** (avc: source, hevc: encode) *Open links, toggle with mouseclick and check title.* [![](https://i.imgur.com/jjIFpWh.png)](https://slow.pics/c/aEru4ky1) [![](https://i.imgur.com/slH3NRP.png)](https://slow.pics/c/qlpaIyrf) [![](https://i.imgur.com/k8zodvh.png)](https://slow.pics/c/qohEbrWK) --- **Source** ?️ Video, Jpn Audio and Subs: [Erai-Raws] https://nyaa.si/view/1129656 ?️ Eng Audio: [Ranger] https://nyaa.si/view/1072700 --- **Media Info** ? [Full Mediainfo incl. Encoder Settings](https://pastebin.com/1d91S71B) ``` General Unique ID : 20455565372020512854101656277293274744 (0xF63993D0F126DE3A92ADBFD14D91678) Complete name : All Out!! - S01E01.mkv Format : Matroska Format version : Version 4 File size : 334 MiB Duration : 24 min 0 s Overall bit rate : 1 948 kb/s Movie name : All Out!! - S01E01 Encoded date : UTC 2020-07-17 21:32:44 Writing application : mkvmerge v47.0.0 ('Black Flag') 64-bit Writing library : libebml v1.3.10 + libmatroska v1.5.2 / Lavf58.47.100 Video ID : 1 Format : HEVC Format/Info : High Efficiency Video Coding Format profile : Main 10@L4@High Codec ID : V_MPEGH/ISO/HEVC Duration : 23 min 59 s Bit rate : 1 563 kb/s Width : 1 920 pixels Height : 1 080 pixels Display aspect ratio : 16:9 Frame rate mode : Constant Frame rate : 23.976 (24000/1001) FPS Color space : YUV Chroma subsampling : 4:2:0 Bit depth : 10 bits Bits/(Pixel*Frame) : 0.031 Stream size : 268 MiB (80%) Writing library : x265 3.2.1+1-b5c86a64bbbe:[Windows][GCC 9.2.0][64 bit] 10bit Encoding settings <Check Link Above> Default : Yes Forced : No Color range : Limited Color primaries : BT.709 Transfer characteristics : BT.709 Matrix coefficients : BT.709 Audio #1 ID : 2 Format : AAC LC Format/Info : Advanced Audio Codec Low Complexity Codec ID : A_AAC-2 Duration : 24 min 0 s Bit rate : 254 kb/s Channel(s) : 2 channels Channel layout : L R Sampling rate : 44.1 kHz Frame rate : 43.066 FPS (1024 SPF) Compression mode : Lossy Delay relative to video : -83 ms Stream size : 43.5 MiB (13%) Title : Stereo (AAC) Language : English Default : Yes Forced : Yes Audio #2 ID : 3 Format : AAC LC Format/Info : Advanced Audio Codec Low Complexity Codec ID : A_AAC-2 Duration : 24 min 0 s Bit rate : 128 kb/s Channel(s) : 2 channels Channel layout : L R Sampling rate : 44.1 kHz Frame rate : 43.066 FPS (1024 SPF) Compression mode : Lossy Delay relative to video : -83 ms Stream size : 22.0 MiB (7%) Title : Stereo (AAC) Language : Japanese Default : No Forced : No Text #1 ID : 4 Format : ASS Codec ID : S_TEXT/ASS Codec ID/Info : Advanced Sub Station Alpha Duration : 22 min 7 s Bit rate : 6 b/s Count of elements : 21 Compression mode : Lossless Stream size : 1.05 KiB (0%) Title : Signs&Songs - ENG (ASS) Language : English Default : Yes Forced : Yes Text #2 ID : 5 Format : ASS Codec ID : S_TEXT/ASS Codec ID/Info : Advanced Sub Station Alpha Duration : 22 min 7 s Bit rate : 119 b/s Count of elements : 298 Compression mode : Lossless Stream size : 19.3 KiB (0%) Title : Dialog - ENG (ASS) Language : English Default : No Forced : No Text #3 ID : 6 Format : ASS Codec ID : S_TEXT/ASS Codec ID/Info : Advanced Sub Station Alpha Duration : 22 min 7 s Bit rate : 112 b/s Count of elements : 291 Compression mode : Lossless Stream size : 18.2 KiB (0%) Title : Dialog - POR (ASS) Language : Portuguese Default : No Forced : No Text #4 ID : 7 Format : ASS Codec ID : S_TEXT/ASS Codec ID/Info : Advanced Sub Station Alpha Duration : 22 min 7 s Bit rate : 111 b/s Count of elements : 292 Compression mode : Lossless Stream size : 18.0 KiB (0%) Title : Dialog - SPA (ASS) Language : Spanish Default : No Forced : No ```

File list

  • [neoHEVC] All Out!! [1080p x265 HEVC AAC] [Dual Audio] [Multi Subs]
    • JPN Default Patch
      • vcdiff
        • All Out!! - S01E01.mkv.vcdiff (86.3 KiB)
        • All Out!! - S01E02.mkv.vcdiff (91.2 KiB)
        • All Out!! - S01E03.mkv.vcdiff (91.2 KiB)
        • All Out!! - S01E04.mkv.vcdiff (91.0 KiB)
        • All Out!! - S01E05.mkv.vcdiff (88.7 KiB)
        • All Out!! - S01E06.mkv.vcdiff (84.8 KiB)
        • All Out!! - S01E07.mkv.vcdiff (88.3 KiB)
        • All Out!! - S01E08.mkv.vcdiff (84.6 KiB)
        • All Out!! - S01E09.mkv.vcdiff (91.3 KiB)
        • All Out!! - S01E10.mkv.vcdiff (85.8 KiB)
        • All Out!! - S01E11.mkv.vcdiff (85.2 KiB)
        • All Out!! - S01E12.mkv.vcdiff (90.8 KiB)
        • All Out!! - S01E13.mkv.vcdiff (85.3 KiB)
        • All Out!! - S01E14.mkv.vcdiff (80.7 KiB)
        • All Out!! - S01E15.mkv.vcdiff (84.0 KiB)
        • All Out!! - S01E16.mkv.vcdiff (90.0 KiB)
        • All Out!! - S01E17.mkv.vcdiff (90.7 KiB)
        • All Out!! - S01E18.mkv.vcdiff (88.7 KiB)
        • All Out!! - S01E19.mkv.vcdiff (96.0 KiB)
        • All Out!! - S01E20.mkv.vcdiff (82.7 KiB)
        • All Out!! - S01E21.mkv.vcdiff (89.7 KiB)
        • All Out!! - S01E22.mkv.vcdiff (89.4 KiB)
        • All Out!! - S01E23.mkv.vcdiff (87.3 KiB)
        • All Out!! - S01E24.mkv.vcdiff (87.5 KiB)
        • All Out!! - S01E25.mkv.vcdiff (86.6 KiB)
      • 1.Readme.txt (1.1 KiB)
      • 2.Changelog.txt (0 Bytes)
      • 3.Apply Patch-Linux.sh (3.6 KiB)
      • 3.Apply Patch-Mac.command (3.7 KiB)
      • 3.Apply Patch-Windows.bat (4.1 KiB)
      • xdelta-3.1.0-x86_64.exe (609.8 KiB)
      • xdelta3 (838.8 KiB)
      • xdelta3_mac (144.7 KiB)
    • All Out!! - S01E01.mkv (334.4 MiB)
    • All Out!! - S01E02.mkv (300.0 MiB)
    • All Out!! - S01E03.mkv (377.8 MiB)
    • All Out!! - S01E04.mkv (406.9 MiB)
    • All Out!! - S01E05.mkv (323.7 MiB)
    • All Out!! - S01E06.mkv (282.5 MiB)
    • All Out!! - S01E07.mkv (314.6 MiB)
    • All Out!! - S01E08.mkv (263.5 MiB)
    • All Out!! - S01E09.mkv (365.4 MiB)
    • All Out!! - S01E10.mkv (298.3 MiB)
    • All Out!! - S01E11.mkv (326.3 MiB)
    • All Out!! - S01E12.mkv (358.9 MiB)
    • All Out!! - S01E13.mkv (282.7 MiB)
    • All Out!! - S01E14.mkv (235.6 MiB)
    • All Out!! - S01E15.mkv (290.3 MiB)
    • All Out!! - S01E16.mkv (317.4 MiB)
    • All Out!! - S01E17.mkv (359.8 MiB)
    • All Out!! - S01E18.mkv (396.1 MiB)
    • All Out!! - S01E19.mkv (438.7 MiB)
    • All Out!! - S01E20.mkv (256.3 MiB)
    • All Out!! - S01E21.mkv (299.7 MiB)
    • All Out!! - S01E22.mkv (329.7 MiB)
    • All Out!! - S01E23.mkv (291.7 MiB)
    • All Out!! - S01E24.mkv (338.8 MiB)
    • All Out!! - S01E25.mkv (360.7 MiB)
Thanks for the encode and the portuguese subs!
Thank you for doing my request - neoborn

neoborn (uploader)

User
You are welcome. These boys need weapons permits for the guns they are carrying :O