[NSBC] Unsung Cinderella E01 [WEBDL] [1080p]

Category:
Date:
2020-07-17 13:45 UTC
Submitter:
Seeders:
7
Information:
TlNCQy50bwo=
Leechers:
1
File size:
1.0 GiB
Completed:
929
Info hash:
4f774868a89b03c9dcdc8ae4868a897992bacac7
> ### From Viu > ### In case there is no seeder, visit [here](https://nosobacrew.wordpress.com/2020/07/17/unsung-cinderella/) > ### Subs at [Subscene](https://subscene.com/subtitles/unsung-cinderella-midori-the-hospital-pharmacist-unsung-cinderella-byoin-yakuzaishi-no-shohosen) ![](https://img.topddl.net/images/2020/07/16/wbhjfr_4o02_cxbg_002_wm.jpg "") ![](https://img.topddl.net/images/2020/07/17/Unsung-Cinderella-S01E01-1080p-WEB-DL-AAC-H.264-NSBC.mkv.jpg "") ``` General Unique ID : 146331108875471782080862957537018183376 (0x6E1658B026E8888C73DAE7225536FED0) Complete name : Unsung Cinderella S01E01 1080p WEB-DL AAC H.264-NSBC.mkv Format : Matroska Format version : Version 4 File size : 1.05 GiB Duration : 56 min 45 s Overall bit rate mode : Variable Overall bit rate : 2 646 kb/s Movie name : Unsung Cinderella S01E01 1080p WEB-DL AAC H.264-NSBC Encoded by : NoNe | NSBC Encoded date : UTC 2020-07-17 13:38:20 Writing application : mkvmerge v29.0.0 ('Like It Or Not') 64-bit Writing library : libebml v1.3.6 + libmatroska v1.4.9 Copyright : NSBC Comment : NoNe | NSBC DATE_RECORDED : 2020 NOTICE ME : SENPAI WEBSITE : NSBC.to Video ID : 1 Format : AVC Format/Info : Advanced Video Codec Format profile : High@L4.1 Format settings : CABAC / 4 Ref Frames Format settings, CABAC : Yes Format settings, Reference frames : 4 frames Codec ID : V_MPEG4/ISO/AVC Duration : 56 min 45 s Bit rate mode : Variable Bit rate : 2 547 kb/s Maximum bit rate : 4 500 kb/s Width : 1 920 pixels Height : 1 080 pixels Display aspect ratio : 16:9 Frame rate mode : Constant Frame rate : 29.970 (30000/1001) FPS Original frame rate : 29.970 (29970/1000) FPS Color space : YUV Chroma subsampling : 4:2:0 Bit depth : 8 bits Scan type : Progressive Bits/(Pixel*Frame) : 0.041 Stream size : 1.01 GiB (96%) Title : [NSBC] Writing library : VOLO1.4.1 Default : Yes Forced : No Audio ID : 2 Format : AAC LC Format/Info : Advanced Audio Codec Low Complexity Codec ID : A_AAC-2 Duration : 56 min 45 s Bit rate : 96.0 kb/s Channel(s) : 2 channels Channel layout : L R Sampling rate : 48.0 kHz Frame rate : 46.875 FPS (1024 SPF) Compression mode : Lossy Delay relative to video : -42 ms Stream size : 39.0 MiB (4%) Title : [NSBC] Language : Japanese Default : Yes Forced : No Text ID : 3 Format : UTF-8 Codec ID : S_TEXT/UTF8 Codec ID/Info : UTF-8 Plain Text Duration : 56 min 39 s Bit rate : 70 b/s Count of elements : 897 Stream size : 29.5 KiB (0%) Title : [NSBC] Language : English Default : Yes Forced : No ```

File list

  • Unsung Cinderella S01E01 1080p WEB-DL AAC H.264-NSBC.mkv (1.0 GiB)
much appreciate the release, thank you