[neoHEVC] WWW.Working!! [BD 1080p x265 HEVC AAC] WWW.WAGNARIA!!

Category:
Date:
2020-07-14 19:19 UTC
Submitter:
Seeders:
21
Information:
Leechers:
1
File size:
2.3 GiB
Completed:
1972
Info hash:
6120bde2781d031abc14c64060f96cba2eac2b9f
![](https://i.imgur.com/geEFUkn.png) *Join **[Discord](https://discord.gg/KYKYZUh)** for Current Projects, Encode-Requests and Seed-Request in case of no available seeds.* **WWW.Working!! / WWW.WAGNARIA!!** *with `Jpn Dub` and `Eng Subs` in `BD 1080p HEVC`* Reencode of [VCB-Studio] (x265 HEVC FLAC) to (x265 HEVC AAC) with added subtitles from [DmonHiro]. *Adjusted Subs:* I tried to implement the feedback that people had for these Subs over at the source comments. I reduced the font size slightly (they very a tad large) and moved them more towards the bottom of the screen. I moved and resized some of the sign and flavor texts and did slight retiming of said texts. Also I changed the font of the main dialog to match the other seasons. *Thank you [DmonHiro] for your work on the Subs. These adjustments were all aesthetic in nature and purely subjective.* Ⓜ️ [WWW.Working!! / WWW.WAGNARIA!! on MAL](https://myanimelist.net/anime/33094/WWWWorking) --- **Related Releases** 1️⃣ [Season 1: Working!!](https://nyaa.si/view/1257403) 2️⃣ [Season 2: Working'!!](https://nyaa.si/view/1257640) 3️⃣ [Season 3: Working!!!](https://nyaa.si/view/1257836) --- **Synopsis** Daisuke Higashida is a serious first-year student at Higashizaka High School. He lives a peaceful everyday life even though he is not satisfied with the family who doesn't laugh at all and makes him tired. However, his father's company goes bankrupt one day, and he can no longer afford allowances, cellphone bills, and commuter tickets. When his father orders him to take up a part-time job, Daisuke decides to work at a nearby family restaurant in order to avoid traveling 15 kilometers to school by bicycle. ![](https://i.imgur.com/B1cU8M2.png) --- **Source** ?️ Video and Audio: [VCB-Studio] https://nyaa.si/view/1204293 ?️ Subs: [DmonHiro] https://nyaa.si/view/956722 ? *Subtitles Info: [DmonHiro] - Format `ASS`* --- **Media Info** ``` General Unique ID : 270421667327797278501376610423390957227 (0xCB715194792A6C614F8E68E6F6616EAB) Complete name : WWW.Working!! - S01E01.mkv Format : Matroska Format version : Version 4 File size : 177 MiB Duration : 23 min 46 s Overall bit rate : 1 042 kb/s Encoded date : UTC 2020-07-14 19:06:15 Writing application : mkvmerge v47.0.0 ('Black Flag') 64-bit Writing library : libebml v1.3.10 + libmatroska v1.5.2 / Lavf58.47.100 Attachments : Linotype Atlantis Regular.TTF / lt.ttf / MetaPro-Bold.otf / RESPUBLICA.TTF / A-OTF-ShinMGoPro-Bold.ttf / A-OTF-ShinMGoPro-Bold-PlzIri.ttf / ARCHRISTY.ttf Video ID : 1 Format : HEVC Format/Info : High Efficiency Video Coding Format profile : Main 10@L4@High Codec ID : V_MPEGH/ISO/HEVC Duration : 23 min 46 s Bit rate : 799 kb/s Width : 1 920 pixels Height : 1 080 pixels Display aspect ratio : 16:9 Frame rate mode : Constant Frame rate : 23.976 (24000/1001) FPS Color space : YUV Chroma subsampling : 4:2:0 Bit depth : 10 bits Bits/(Pixel*Frame) : 0.016 Stream size : 136 MiB (77%) Writing library : x265 3.2.1+1-b5c86a64bbbe:[Windows][GCC 9.2.0][64 bit] 10bit Encoding settings : cpuid=1111039 / frame-threads=2 / numa-pools=4 / wpp / no-pmode / no-pme / no-psnr / no-ssim / log-level=2 / input-csp=1 / input-res=1920x1080 / interlace=0 / total-frames=0 / level-idc=40 / high-tier=1 / uhd-bd=0 / ref=5 / no-allow-non-conformance / no-repeat-headers / annexb / no-aud / no-hrd / info / hash=0 / no-temporal-layers / open-gop / min-keyint=24 / keyint=240 / gop-lookahead=0 / bframes=8 / b-adapt=2 / b-pyramid / bframe-bias=0 / rc-lookahead=20 / lookahead-slices=6 / scenecut=40 / radl=0 / no-splice / no-intra-refresh / ctu=64 / min-cu-size=8 / no-rect / no-amp / max-tu-size=32 / tu-inter-depth=1 / tu-intra-depth=1 / limit-tu=0 / rdoq-level=0 / dynamic-rd=0.00 / no-ssim-rd / signhide / no-tskip / nr-intra=0 / nr-inter=0 / no-constrained-intra / strong-intra-smoothing / max-merge=3 / limit-refs=1 / no-limit-modes / me=1 / subme=2 / merange=57 / temporal-mvp / no-hme / weightp / no-weightb / no-analyze-src-pics / deblock=0:0 / sao / no-sao-non-deblock / rd=3 / selective-sao=4 / early-skip / rskip / no-fast-intra / no-tskip-fast / no-cu-lossless / b-intra / no-splitrd-skip / rdpenalty=0 / psy-rd=0.00 / psy-rdoq=0.00 / no-rd-refine / no-lossless / cbqpoffs=0 / crqpoffs=0 / rc=crf / crf=21.0 / qcomp=0.60 / qpstep=4 / stats-write=0 / stats-read=0 / vbv-maxrate=30000 / vbv-bufsize=30000 / vbv-init=0.9 / crf-max=0.0 / crf-min=0.0 / ipratio=1.40 / pbratio=1.30 / aq-mode=3 / aq-strength=0.80 / cutree / zone-count=0 / no-strict-cbr / qg-size=32 / no-rc-grain / qpmax=69 / qpmin=0 / no-const-vbv / sar=1 / overscan=0 / videoformat=5 / range=0 / colorprim=1 / transfer=1 / colormatrix=1 / chromaloc=0 / display-window=0 / cll=0,0 / min-luma=0 / max-luma=1023 / log2-max-poc-lsb=8 / vui-timing-info / vui-hrd-info / slices=1 / no-opt-qp-pps / no-opt-ref-list-length-pps / no-multi-pass-opt-rps / scenecut-bias=0.05 / no-opt-cu-delta-qp / no-aq-motion / no-hdr / no-hdr-opt / no-dhdr10-opt / no-idr-recovery-sei / analysis-reuse-level=5 / scale-factor=0 / refine-intra=0 / refine-inter=0 / refine-mv=1 / refine-ctu-distortion=0 / no-limit-sao / ctu-info=0 / no-lowpass-dct / refine-analysis-type=0 / copy-pic=1 / max-ausize-factor=1.0 / no-dynamic-refine / no-single-sei / no-hevc-aq / no-svt / no-field / qp-adaptation-range=1.00 Default : Yes Forced : No Color range : Limited Color primaries : BT.709 Transfer characteristics : BT.709 Matrix coefficients : BT.709 Audio ID : 2 Format : AAC LC Format/Info : Advanced Audio Codec Low Complexity Codec ID : A_AAC-2 Duration : 23 min 46 s Bit rate : 207 kb/s Channel(s) : 2 channels Channel layout : L R Sampling rate : 48.0 kHz Frame rate : 46.875 FPS (1024 SPF) Compression mode : Lossy Delay relative to video : -43 ms Stream size : 35.3 MiB (20%) Title : Stereo Language : Japanese Default : Yes Forced : No Text ID : 3 Format : ASS Codec ID : S_TEXT/ASS Codec ID/Info : Advanced Sub Station Alpha Duration : 23 min 36 s Bit rate : 137 b/s Count of elements : 447 Compression mode : Lossless Stream size : 23.8 KiB (0%) Default : Yes Forced : No Menu 00:00:00.000 : :アバン 00:02:25.020 : :Aパート 00:10:36.052 : :Bパート 00:21:56.023 : :オープニング 00:23:26.030 : :おまけ 00:23:35.039 : :次回予告 ```

File list

  • [neoHEVC] WWW.Working!! v2 [BD 1080p x265 HEVC AAC]
    • WWW.Working!! - S01E01.mkv (177.1 MiB)
    • WWW.Working!! - S01E02.mkv (183.2 MiB)
    • WWW.Working!! - S01E03.mkv (167.9 MiB)
    • WWW.Working!! - S01E04.mkv (178.0 MiB)
    • WWW.Working!! - S01E05.mkv (184.7 MiB)
    • WWW.Working!! - S01E06.mkv (188.6 MiB)
    • WWW.Working!! - S01E07.mkv (199.3 MiB)
    • WWW.Working!! - S01E08.mkv (169.6 MiB)
    • WWW.Working!! - S01E09.mkv (179.3 MiB)
    • WWW.Working!! - S01E10.mkv (185.9 MiB)
    • WWW.Working!! - S01E11.mkv (185.7 MiB)
    • WWW.Working!! - S01E12.mkv (160.7 MiB)
    • WWW.Working!! - S01E13.mkv (168.7 MiB)
Just asking, but why re-encode something that was already at h265? Was it just to make the files smaller? Saves time if you just change the audio complexity and leave everything as is. I usually re-encode a h265 file if the file size is astronomically huge. I don't intend to sound condescending or anything.
Well, her releases are a lot smaller compared to ours. I try not to re-encode HEVC because it usually doesn't save much.

neoborn (uploader)

User
It is to make things smaller indeed. I can live with file sizes of up to 500 MB per episode for 1080p SoL. Even though I think that is too big for slice of life and not worth the space (totally subjective though). I check my results after shrinking and if I can't spot the difference unless using magnifying glasses on still frames then my mission is accomplished :) It's not so much about the codec and more about the level of compression that I'm comfortable with and am going after. For my eye 1.2 GB per episode for one of these 'talking shows' like many slice of life comedies is just too much. This ones source was almost at an acceptable level for me (would have probably got to 500MB with just transcoding FLAC to AAC). I tried it anyway and I liked it so I didn't throw the encode away.
Hey ! Neo I wish you could reencode this https://nyaa.si/view/1204292 like u did on this torrent , I know you already did it with [Moozzi2] version . But i like VCB-Studio version better.
Thank you so much BTW seed please :)