[neoHEVC] Yuyushiki [Season 1 + OVA] [BD 1080p x265 HEVC AAC]

Category:
Date:
2020-07-13 16:42 UTC
Submitter:
Seeders:
43
Information:
Leechers:
0
File size:
2.8 GiB
Completed:
2224
Info hash:
14d097220ec606521e6e8c648138939312b71730
![](https://i.imgur.com/geEFUkn.png) *Join **[Discord](https://discord.gg/KYKYZUh)** for Current Projects, Encode-Requests and Seed-Request in case of no available seeds.* **Yuyushiki** Including *Yuyushiki OVA: Komarasetari, Komarasaretari* *with `Jpn Dub` and `Eng Subs` in `BD 1080p HEVC`* Reencode of [UQW] (x264 AVC FLAC) to (x265 HEVC AAC) with added subtitles from [Commie] Ⓜ️ [Yuyushiki on MAL](https://myanimelist.net/anime/15911/Yuyushiki) Ⓜ️ [Yuyushiki OVA: Komarasetari, Komarasaretari on MAL](https://myanimelist.net/anime/33035/Yuyushiki__Komarasetari_Komarasaretari) --- **Synopsis** It is the first day of high school for the level-headed Yui. Wearing her new school uniform for the first time, she does not look forward to the anticipated teasing by her best friends: the mischievous energetic Yuzuko and the sleepy-head Yukari. About to attend the enrolment ceremony at school, the first-year high school students are delighted to discover that they made it into the same class. But as freshmen they are expected to take part in club activities, but what club should they choose? They note that the Data Processing Club has zero members, situated in a small cosy room with two workstations. Their teacher and also the DPC's club advisor is Matsumoto Yoriko, who the girls lovingly call Mom, even though she is not even 30 years old yet. The girls decide to join the Data Processing Club, giving them many strange topics to look up and talk about. No wordplay can be too strange not to be enjoyed by this close group of friends. ![](https://i.imgur.com/zruEfI7.png) --- **Source** ?️ Video, Audio and Subs: [UQW] https://nyaa.si/view/1203596 ? *Subtitles Info: [Commie] - Format `ASS`* --- **Media Info** ``` General Unique ID : 65252626364028520559938149681868645192 (0x311732DE6CDAF46491E86EB0FA492348) Complete name : Yuyushiki - S01E01.mkv Format : Matroska Format version : Version 4 File size : 252 MiB Duration : 23 min 42 s Overall bit rate : 1 484 kb/s Movie name : Yuyushiki - S01E01 Encoded date : UTC 2020-07-13 16:27:48 Writing application : mkvmerge v47.0.0 ('Black Flag') 64-bit Writing library : libebml v1.3.10 + libmatroska v1.5.2 / Lavf58.29.100 Attachments : ABSCI.TTF / Arial Rounded MT.ttf / arial_0.ttf / ARLRDBD.TTF / Barsoi.ttf / CENTURY.TTF / Cookies.ttf / DAYROM.ttf / FRABK.TTF / FRAHV.TTF / framd.ttf / Fuzzy Bear.ttf / HEN____.ttf / Highlander OS ITC TT BookItalic.ttf / Imagination Station.ttf / Joshiraku v9.ttf / KGFallForYou.ttf / KGFallForYouBold.ttf / Lato-Bol.ttf / Lato-Reg.ttf / LEHN095.TTF / lemon squeezy .ttf / LEVIBRUSH.TTF / LT.ttf / LTFinnegan_MediumItalic.ttf / LT_1.ttf / mangolov.ttf / pencilfied.ttf / pf_ronda_seven.ttf / Polo Brush.ttf / PPETRIAL.ttf / SCRATCHMYBACK.TTF / SwaggerLight.ttf / Waiting for the Sunrise.ttf Video ID : 1 Format : HEVC Format/Info : High Efficiency Video Coding Format profile : Main 10@L4@High Codec ID : V_MPEGH/ISO/HEVC Duration : 23 min 42 s Bit rate : 1 365 kb/s Width : 1 920 pixels Height : 1 080 pixels Display aspect ratio : 16:9 Frame rate mode : Constant Frame rate : 23.976 (24000/1001) FPS Color space : YUV Chroma subsampling : 4:2:0 Bit depth : 10 bits Bits/(Pixel*Frame) : 0.027 Stream size : 232 MiB (92%) Writing library : x265 3.2.1+1-b5c86a64bbbe:[Windows][GCC 9.2.0][64 bit] 10bit Encoding settings : cpuid=1111039 / frame-threads=2 / numa-pools=4 / wpp / no-pmode / no-pme / no-psnr / no-ssim / log-level=2 / input-csp=1 / input-res=1920x1080 / interlace=0 / total-frames=0 / level-idc=40 / high-tier=1 / uhd-bd=0 / ref=5 / no-allow-non-conformance / no-repeat-headers / annexb / no-aud / no-hrd / info / hash=0 / no-temporal-layers / open-gop / min-keyint=24 / keyint=240 / gop-lookahead=0 / bframes=8 / b-adapt=2 / b-pyramid / bframe-bias=0 / rc-lookahead=25 / lookahead-slices=4 / scenecut=40 / radl=0 / no-splice / no-intra-refresh / ctu=64 / min-cu-size=8 / rect / no-amp / max-tu-size=32 / tu-inter-depth=1 / tu-intra-depth=1 / limit-tu=0 / rdoq-level=2 / dynamic-rd=0.00 / no-ssim-rd / signhide / no-tskip / nr-intra=0 / nr-inter=0 / no-constrained-intra / strong-intra-smoothing / max-merge=3 / limit-refs=3 / limit-modes / me=3 / subme=3 / merange=57 / temporal-mvp / no-hme / weightp / no-weightb / no-analyze-src-pics / deblock=0:0 / sao / no-sao-non-deblock / rd=4 / selective-sao=4 / no-early-skip / rskip / no-fast-intra / no-tskip-fast / no-cu-lossless / no-b-intra / no-splitrd-skip / rdpenalty=0 / psy-rd=0.00 / psy-rdoq=1.00 / no-rd-refine / no-lossless / cbqpoffs=0 / crqpoffs=0 / rc=crf / crf=20.0 / qcomp=0.60 / qpstep=4 / stats-write=0 / stats-read=0 / vbv-maxrate=30000 / vbv-bufsize=30000 / vbv-init=0.9 / crf-max=0.0 / crf-min=0.0 / ipratio=1.40 / pbratio=1.30 / aq-mode=3 / aq-strength=0.80 / cutree / zone-count=0 / no-strict-cbr / qg-size=32 / no-rc-grain / qpmax=69 / qpmin=0 / no-const-vbv / sar=1 / overscan=0 / videoformat=5 / range=0 / colorprim=1 / transfer=1 / colormatrix=1 / chromaloc=0 / display-window=0 / cll=0,0 / min-luma=0 / max-luma=1023 / log2-max-poc-lsb=8 / vui-timing-info / vui-hrd-info / slices=1 / no-opt-qp-pps / no-opt-ref-list-length-pps / no-multi-pass-opt-rps / scenecut-bias=0.05 / no-opt-cu-delta-qp / no-aq-motion / no-hdr / no-hdr-opt / no-dhdr10-opt / no-idr-recovery-sei / analysis-reuse-level=5 / scale-factor=0 / refine-intra=0 / refine-inter=0 / refine-mv=1 / refine-ctu-distortion=0 / no-limit-sao / ctu-info=0 / no-lowpass-dct / refine-analysis-type=0 / copy-pic=1 / max-ausize-factor=1.0 / no-dynamic-refine / no-single-sei / no-hevc-aq / no-svt / no-field / qp-adaptation-range=1.00 Default : Yes Forced : No Color range : Limited Color primaries : BT.709 Transfer characteristics : BT.709 Matrix coefficients : BT.709 Audio ID : 2 Format : AAC LC Format/Info : Advanced Audio Codec Low Complexity Codec ID : A_AAC-2 Duration : 23 min 42 s Bit rate : 96.0 kb/s Channel(s) : 2 channels Channel layout : L R Sampling rate : 48.0 kHz Frame rate : 46.875 FPS (1024 SPF) Compression mode : Lossy Delay relative to video : -43 ms Stream size : 16.4 MiB (7%) Title : Stereo (AAC) Language : Japanese Default : Yes Forced : No Text ID : 3 Format : ASS Codec ID : S_TEXT/ASS Codec ID/Info : Advanced Sub Station Alpha Duration : 23 min 21 s Bit rate : 779 b/s Count of elements : 1012 Compression mode : Lossless Stream size : 133 KiB (0%) Title : Dialog (ASS) Language : English Default : Yes Forced : No ```

File list

  • [neoHEVC] Yuyushiki [BD 1080p x265 HEVC AAC]
    • Yuyushiki - S01E01.mkv (251.7 MiB)
    • Yuyushiki - S01E02.mkv (228.2 MiB)
    • Yuyushiki - S01E03.mkv (223.8 MiB)
    • Yuyushiki - S01E04.mkv (211.9 MiB)
    • Yuyushiki - S01E05.mkv (214.1 MiB)
    • Yuyushiki - S01E06.mkv (222.7 MiB)
    • Yuyushiki - S01E07.mkv (194.7 MiB)
    • Yuyushiki - S01E08.mkv (209.5 MiB)
    • Yuyushiki - S01E09.mkv (218.4 MiB)
    • Yuyushiki - S01E10.mkv (213.9 MiB)
    • Yuyushiki - S01E11.mkv (214.2 MiB)
    • Yuyushiki - S01E12.mkv (206.2 MiB)
    • Yuyushiki OVA - Komarasetari, Komarasaretari.mkv (276.1 MiB)
Thanks a lot! This doesn't include the Nyanyashiki specials (short, inconsequential and frankly uninteresting as they were), but I'll just keep my old [unCommied] rips in a subfolder. Yet another great release. :D