[NSBC] Death Row Family / Zenin Shikei / 全員死刑 2017 [WEBDL] [1080p]

Category:
Date:
2020-07-13 10:06 UTC
Submitter:
Seeders:
1
Information:
TlNCQy50bw==
Leechers:
0
File size:
4.0 GiB
Completed:
494
Info hash:
260e60a8f19f617b10081013c89ebac22970606b
> Request reseed? Click [Here](https://nosobacrew.wordpress.com/) ![](https://img.topddl.net/images/2020/07/13/20170825-5.jpg "") ![](https://img.topddl.net/images/2020/07/13/Death-Row-Family-2017-1080p-WEB-DL-DDP2.0-H.264-NSBC.mkv.jpg "") ``` General Unique ID : 84443166639445357424080729754384298403 (0x3F87298DFFADCD5CFAB21050D4A171A3) Complete name : Death Row Family 2017 1080p WEB-DL DDP2.0 H.264-NSBC.mkv Format : Matroska Format version : Version 4 File size : 3.98 GiB Duration : 1 h 38 min Overall bit rate : 5 759 kb/s Movie name : Death Row Family 2017 1080p WEB-DL DDP2.0 H.264-NSBC Encoded by : Cloud | NSBC Encoded date : UTC 2020-07-13 08:19:33 Writing application : mkvmerge v29.0.0 ('Like It Or Not') 64-bit Writing library : libebml v1.3.6 + libmatroska v1.4.9 Copyright : NSBC Comment : Cloud | NSBC BROUGHT TO YOU BY : Cloud x Tifa WEBSITE : NSBC.to Video ID : 1 Format : AVC Format/Info : Advanced Video Codec Format profile : High@L4 Format settings : CABAC / 3 Ref Frames Format settings, CABAC : Yes Format settings, Reference frames : 3 frames Format settings, GOP : M=1, N=30 Codec ID : V_MPEG4/ISO/AVC Duration : 1 h 38 min Bit rate : 4 988 kb/s Width : 1 920 pixels Height : 1 080 pixels Display aspect ratio : 16:9 Frame rate mode : Constant Frame rate : 29.970 (30000/1001) FPS Color space : YUV Chroma subsampling : 4:2:0 Bit depth : 8 bits Scan type : Progressive Bits/(Pixel*Frame) : 0.080 Stream size : 3.45 GiB (87%) Title : [NSBC] Writing library : Zencoder Video Encoding System Default : Yes Forced : No Color range : Limited Color primaries : BT.709 Transfer characteristics : BT.709 Matrix coefficients : BT.709 Audio #1 ID : 2 Format : E-AC-3 Format/Info : Enhanced AC-3 Commercial name : Dolby Digital Plus Codec ID : A_EAC3 Duration : 1 h 38 min Bit rate mode : Constant Bit rate : 640 kb/s Channel(s) : 2 channels Channel layout : L R Sampling rate : 48.0 kHz Frame rate : 31.250 FPS (1536 SPF) Compression mode : Lossy Stream size : 453 MiB (11%) Title : [NSBC] Language : Japanese Service kind : Complete Main Default : Yes Forced : No Audio #2 ID : 3 Format : AAC LC Format/Info : Advanced Audio Codec Low Complexity Codec ID : A_AAC-2 Duration : 1 h 38 min Bit rate : 128 kb/s Channel(s) : 2 channels Channel layout : L R Sampling rate : 48.0 kHz Frame rate : 46.875 FPS (1024 SPF) Compression mode : Lossy Stream size : 90.6 MiB (2%) Title : [NSBC] Language : Japanese Default : No Forced : No ```

File list

  • Death Row Family 2017 1080p WEB-DL DDP2.0 H.264-NSBC.mkv (4.0 GiB)
Thanks so very much for this.