[NSBC] Midnight Eagle / ミッドナイト イーグル 2007 [WEBDL] [1080p]

Category:
Date:
2020-07-13 10:06 UTC
Submitter:
Seeders:
2
Information:
TlNCQy50bw==
Leechers:
1
File size:
5.3 GiB
Completed:
667
Info hash:
3ab41c3eb22f93871731d3a61cea05b6a30a3b50
> Request reseed? Click [Here](https://nosobacrew.wordpress.com/) ![](https://img.topddl.net/images/2020/07/13/Midnight-Eagle-images-762239c0-3259-408f-8835-410c3af11a8.jpg "") ![](https://img.topddl.net/images/2020/07/13/Midnight-Eagle-2007-1080p-WEB-DL-DDP2.0-H.264-NSBC.mkv.jpg "") ``` General Unique ID : 165772829428973398921974907906749461363 (0x7CB6AF848CDACA005B96CF92CF097373) Complete name : Midnight Eagle 2007 1080p WEB-DL DDP2.0 H.264-NSBC.mkv Format : Matroska Format version : Version 4 File size : 5.32 GiB Duration : 2 h 12 min Overall bit rate : 5 763 kb/s Movie name : Midnight Eagle 2007 1080p WEB-DL DDP2.0 H.264-NSBC Encoded by : Cloud | NSBC Encoded date : UTC 2020-07-13 08:39:45 Writing application : mkvmerge v29.0.0 ('Like It Or Not') 64-bit Writing library : libebml v1.3.6 + libmatroska v1.4.9 Copyright : NSBC Comment : Cloud | NSBC BROUGHT TO YOU BY : Cloud x Tifa WEBSITE : NSBC.to Video ID : 1 Format : AVC Format/Info : Advanced Video Codec Format profile : High@L4 Format settings : CABAC / 3 Ref Frames Format settings, CABAC : Yes Format settings, Reference frames : 3 frames Format settings, GOP : M=1, N=30 Codec ID : V_MPEG4/ISO/AVC Duration : 2 h 12 min Bit rate : 4 992 kb/s Width : 1 920 pixels Height : 1 080 pixels Display aspect ratio : 16:9 Frame rate mode : Constant Frame rate : 29.970 (30000/1001) FPS Color space : YUV Chroma subsampling : 4:2:0 Bit depth : 8 bits Scan type : Progressive Bits/(Pixel*Frame) : 0.080 Stream size : 4.61 GiB (87%) Title : [NSBC] Writing library : Zencoder Video Encoding System Default : Yes Forced : No Color range : Limited Color primaries : BT.709 Transfer characteristics : BT.709 Matrix coefficients : BT.709 Audio #1 ID : 2 Format : E-AC-3 Format/Info : Enhanced AC-3 Commercial name : Dolby Digital Plus Codec ID : A_EAC3 Duration : 2 h 12 min Bit rate mode : Constant Bit rate : 640 kb/s Channel(s) : 2 channels Channel layout : L R Sampling rate : 48.0 kHz Frame rate : 31.250 FPS (1536 SPF) Compression mode : Lossy Stream size : 605 MiB (11%) Title : [NSBC] Language : Japanese Service kind : Complete Main Default : No Forced : No Audio #2 ID : 3 Format : AAC LC Format/Info : Advanced Audio Codec Low Complexity Codec ID : A_AAC-2 Duration : 2 h 12 min Bit rate : 128 kb/s Channel(s) : 2 channels Channel layout : L R Sampling rate : 48.0 kHz Frame rate : 46.875 FPS (1024 SPF) Compression mode : Lossy Stream size : 121 MiB (2%) Title : [NSBC] Language : Japanese Default : Yes Forced : No ```

File list

  • Midnight Eagle 2007 1080p WEB-DL DDP2.0 H.264-NSBC.mkv (5.3 GiB)
Thanks very much