[NSBC] Tada's Do-It-All House / Mahoro Ekimae Tada Benriken / まほろ駅前多田便利軒 2011 [WEBDL] [1080p]

Category:
Date:
2020-07-13 10:06 UTC
Submitter:
Seeders:
0
Information:
TlNCQy50bw==
Leechers:
2
File size:
4.9 GiB
Completed:
443
Info hash:
bf1a5692417b51be76b249f80a2c5ae41444f12f
> Request reseed? Click [Here](https://nosobacrew.wordpress.com/) ![](https://img.topddl.net/images/2020/07/13/164308_03.jpg "") ![](https://img.topddl.net/images/2020/07/13/Tadas-Do-It-All-House-2011-1080p-WEB-DL-DDP2.0-H.264-NSBC.mkv.jpg "") ``` General Unique ID : 164012124889073071111139454365308682439 (0x7B639614EA5B239F8079063B865600C7) Complete name : Tada's Do-It-All House 2011 1080p WEB-DL DDP2.0 H.264-NSBC.mkv Format : Matroska Format version : Version 4 File size : 4.94 GiB Duration : 2 h 3 min Overall bit rate : 5 738 kb/s Movie name : Tada's Do-It-All House 2011 1080p WEB-DL DDP2.0 H.264-NSBC Encoded by : Cloud | NSBC Encoded date : UTC 2020-07-13 08:59:32 Writing application : mkvmerge v29.0.0 ('Like It Or Not') 64-bit Writing library : libebml v1.3.6 + libmatroska v1.4.9 Copyright : NSBC Comment : Cloud | NSBC BROUGHT TO YOU BY : Cloud x Tifa WEBSITE : NSBC.to Video ID : 1 Format : AVC Format/Info : Advanced Video Codec Format profile : High@L4 Format settings : CABAC / 3 Ref Frames Format settings, CABAC : Yes Format settings, Reference frames : 3 frames Format settings, GOP : M=1, N=30 Codec ID : V_MPEG4/ISO/AVC Duration : 2 h 3 min Bit rate : 4 967 kb/s Width : 1 920 pixels Height : 1 080 pixels Display aspect ratio : 16:9 Frame rate mode : Constant Frame rate : 29.970 (30000/1001) FPS Color space : YUV Chroma subsampling : 4:2:0 Bit depth : 8 bits Scan type : Progressive Bits/(Pixel*Frame) : 0.080 Stream size : 4.28 GiB (87%) Title : [NSBC] Default : Yes Forced : No Color range : Limited Color primaries : BT.709 Transfer characteristics : BT.709 Matrix coefficients : BT.709 Audio #1 ID : 2 Format : E-AC-3 Format/Info : Enhanced AC-3 Commercial name : Dolby Digital Plus Codec ID : A_EAC3 Duration : 2 h 3 min Bit rate mode : Constant Bit rate : 640 kb/s Channel(s) : 2 channels Channel layout : L R Sampling rate : 48.0 kHz Frame rate : 31.250 FPS (1536 SPF) Compression mode : Lossy Stream size : 564 MiB (11%) Title : [NSBC] Language : Japanese Service kind : Complete Main Default : Yes Forced : No Audio #2 ID : 3 Format : AAC LC Format/Info : Advanced Audio Codec Low Complexity Codec ID : A_AAC-2 Duration : 2 h 3 min Bit rate : 128 kb/s Channel(s) : 2 channels Channel layout : L R Sampling rate : 48.0 kHz Frame rate : 46.875 FPS (1024 SPF) Compression mode : Lossy Stream size : 113 MiB (2%) Title : [NSBC] Language : Japanese Default : No Forced : No ```

File list

  • Tada's Do-It-All House 2011 1080p WEB-DL DDP2.0 H.264-NSBC.mkv (4.9 GiB)