[neoHEVC] Red Data Girl [BD 1080p x265 HEVC AAC] [Dual Audio]

Category:
Date:
2020-07-11 12:09 UTC
Submitter:
Seeders:
10
Information:
Leechers:
0
File size:
4.0 GiB
Completed:
989
Info hash:
83755b30658bff462e7f3d6b626d900ead213bca
![](https://i.imgur.com/geEFUkn.png) *Join **[Discord](https://discord.gg/KYKYZUh)** for Current Projects, Encode-Requests and Seed-Request in case of no available seeds.* **Red Data Girl** *with `Dual Audio (Jpn/Eng)` and `Eng Subs` in `BD 1080p HEVC`* Reencode of [VCB-Studio] (x264 AVC FLAC) to (x265 HEVC AAC) with added English audio tracks and subtitles from [CBM]. Ⓜ️ [Red Data Girl on MAL](https://myanimelist.net/anime/14921/RDG__Red_Data_Girl) --- **Patch for Default Language / Subtitles Track** This comes with [English audio] and [Signs/Songs subtitles] as default tracks. I included an xDelta Patch for those who rather like [Japanese audio] with [Dialog subtitles] as default. > Simply put all the video files into the Patch folder and run the patch file depending on your OS (for Windows: run '*3.Apply Patch-Windows.bat*'). > Consult '*readme.txt*' if you need help. --- **Synopsis** Fifteen-year-old Izumiko Suzuhara just wants to be a normal girl, but that is easier said than done. Raised in a shrine deep in the mountains, she grew up extremely sheltered and painfully shy. She also has the unfortunate tendency to destroy any electronic device simply by touching it. Despite this, she still wants to try and change her life. To mark her determination to follow through on this transformation, Izumiko begins by cutting her bangs, which shocks both her classmates and protectors. And that's only the start! Her guardian, Yukimasa Sagara, forces his son, Miyuki, to come to the mountain shrine and become Izumiko's lifelong servant and protector. Too bad Izumiko and Miyuki cannot stand each other. They have known each other since they were children, and Miyuki bullied her terribly. He simply does not understand what is so special about Izumiko. His father calls Izumiko a goddess, but that cannot be true…can it? Will Izumiko and Miyuki work past their differences? Is she actually a literal goddess? Find out in RDG: Red Data Girl! ![](https://i.imgur.com/JxUBkE5.png) --- **Comparison** (avc: source, hevc: encode) *Open links, toggle with mouseclick and check title.* [![](https://i.imgur.com/hZH4MBt.png)](https://slow.pics/c/9HGTN3iD) [![](https://i.imgur.com/EfvQlLd.png)](https://slow.pics/c/iY1a2Ei7) [![](https://i.imgur.com/mb9q5KP.png)](https://slow.pics/c/vxLcPNYD) --- **Source** ?️ Video and Jpn Audio: [VCB-Studio] https://nyaa.si/view/1217911 ?️ Eng Audio and Subs: [CBM] https://nyaa.si/view/702453 ? *Subtitles Info: [CBM] - Format `ASS`* --- **Media Info** ? [Full Mediainfo incl. Encoder Settings](https://pastebin.com/bemcbrFy) ``` General Unique ID : 309382033522597784865434926686302385091 (0xE8C0CFF0614BC7358C3F934E784833C3) Complete name : Red Data Girl - S01E01.mkv Format : Matroska Format version : Version 4 File size : 374 MiB Duration : 24 min 42 s Overall bit rate : 2 119 kb/s Movie name : Red Data Girl - S01E01 Writing application : Lavf58.47.100 Writing library : Lavf58.47.100 ErrorDetectionType : Per level 1 Attachments : erasdus0.ttf / jesaya free.ttf / tahomabd.ttf / TektonPro-Bold.otf / 26746.ttf Video ID : 1 Format : HEVC Format/Info : High Efficiency Video Coding Format profile : Main 10@L4@High Codec ID : V_MPEGH/ISO/HEVC Duration : 24 min 42 s Bit rate : 1 638 kb/s Width : 1 920 pixels Height : 1 080 pixels Display aspect ratio : 16:9 Frame rate mode : Constant Frame rate : 23.976 (23976/1000) FPS Original frame rate : 23.976 (24000/1001) FPS Color space : YUV Chroma subsampling : 4:2:0 Bit depth : 10 bits Bits/(Pixel*Frame) : 0.033 Stream size : 289 MiB (77%) Writing library : x265 3.2.1+1-b5c86a64bbbe:[Windows][GCC 9.2.0][64 bit] 10bit Encoding settings : <Check Link Above> Default : Yes Forced : No Color range : Limited Color primaries : BT.709 Transfer characteristics : BT.709 Matrix coefficients : BT.709 Audio #1 ID : 2 Format : AAC LC Format/Info : Advanced Audio Codec Low Complexity Codec ID : A_AAC-2 Duration : 24 min 42 s Bit rate : 213 kb/s Channel(s) : 2 channels Channel layout : L R Sampling rate : 48.0 kHz Frame rate : 46.875 FPS (1024 SPF) Compression mode : Lossy Delay relative to video : -22 ms Stream size : 37.6 MiB (10%) Title : Stereo (AAC) Language : Japanese Default : No Forced : No Audio #2 ID : 3 Format : AAC LC Format/Info : Advanced Audio Codec Low Complexity Codec ID : A_AAC-2 Duration : 24 min 42 s Bit rate : 255 kb/s Channel(s) : 2 channels Channel layout : L R Sampling rate : 48.0 kHz Frame rate : 46.875 FPS (1024 SPF) Compression mode : Lossy Delay relative to video : -43 ms Stream size : 45.1 MiB (12%) Title : Stereo (AAC) Writing library : Lavc58.93.100 aac Language : English Default : Yes Forced : No Text #1 ID : 4 Format : ASS Codec ID : S_TEXT/ASS Codec ID/Info : Advanced Sub Station Alpha Duration : 24 min 41 s Bit rate : 146 b/s Count of elements : 380 Compression mode : Lossless Stream size : 26.0 KiB (0%) Title : Dialog (ASS) Language : English Default : No Forced : No Text #2 ID : 5 Format : ASS Codec ID : S_TEXT/ASS Codec ID/Info : Advanced Sub Station Alpha Duration : 24 min 41 s Bit rate : 29 b/s Count of elements : 44 Compression mode : Lossless Stream size : 5.30 KiB (0%) Title : Signs & Songs (ASS) Language : English Default : Yes Forced : No Menu 00:00:00.000 : :Chapter 1 00:00:55.055 : :Chapter 2 00:02:25.020 : :Chapter 3 00:11:33.026 : :Chapter 4 00:23:00.963 : :Chapter 5 00:24:31.095 : :Chapter 6 ```

File list

  • [neoHEVC] Red Data Girl [BD 1080p x265 HEVC AAC] [Dual Audio]
    • Patch
      • vcdiff
        • Red Data Girl - S01E01.mkv.vcdiff (1.9 KiB)
        • Red Data Girl - S01E02.mkv.vcdiff (1.7 KiB)
        • Red Data Girl - S01E03.mkv.vcdiff (1.6 KiB)
        • Red Data Girl - S01E04.mkv.vcdiff (1.7 KiB)
        • Red Data Girl - S01E05.mkv.vcdiff (1.8 KiB)
        • Red Data Girl - S01E06.mkv.vcdiff (1.8 KiB)
        • Red Data Girl - S01E07.mkv.vcdiff (1.9 KiB)
        • Red Data Girl - S01E08.mkv.vcdiff (1.7 KiB)
        • Red Data Girl - S01E09.mkv.vcdiff (1.7 KiB)
        • Red Data Girl - S01E10.mkv.vcdiff (1.7 KiB)
        • Red Data Girl - S01E11.mkv.vcdiff (2.0 KiB)
        • Red Data Girl - S01E12.mkv.vcdiff (1.7 KiB)
      • 1.Readme.txt (1.1 KiB)
      • 2.Changelog.txt (0 Bytes)
      • 3.Apply Patch-Linux.sh (1.9 KiB)
      • 3.Apply Patch-Mac.command (2.0 KiB)
      • 3.Apply Patch-Windows.bat (2.2 KiB)
      • xdelta-3.1.0-x86_64.exe (609.8 KiB)
      • xdelta3 (838.8 KiB)
      • xdelta3_mac (144.7 KiB)
    • Red Data Girl - S01E01.mkv (374.4 MiB)
    • Red Data Girl - S01E02.mkv (313.9 MiB)
    • Red Data Girl - S01E03.mkv (300.1 MiB)
    • Red Data Girl - S01E04.mkv (323.6 MiB)
    • Red Data Girl - S01E05.mkv (337.1 MiB)
    • Red Data Girl - S01E06.mkv (354.2 MiB)
    • Red Data Girl - S01E07.mkv (377.5 MiB)
    • Red Data Girl - S01E08.mkv (329.8 MiB)
    • Red Data Girl - S01E09.mkv (318.4 MiB)
    • Red Data Girl - S01E10.mkv (307.5 MiB)
    • Red Data Girl - S01E11.mkv (404.0 MiB)
    • Red Data Girl - S01E12.mkv (308.1 MiB)

neoborn (uploader)

User
❤️❤️❤️
Thank you for following up so soon on the request! You're the best!! <3

neoborn (uploader)

User
You are welcome Armi :)

Tho

User
I remember being one of the very first people that took interest in this back in the day when the source had only started about a week prior and loved it, but never quite got into the anime despite eagerly waiting for it because it took SO long to come out after it's announcement (think it was like 3 years wait), good chance to give it another try, so thanks for posting this!
can someone please seed this torrent ? thank you before :)
Thanks neoborn! Very nice quality, as always! Much appreciated :)