[Mysteria] PSYCHO-PASS Extended Edition [BD 1080p] (HEVC x265 10-bit Opus)

Category:
Date:
2020-07-06 22:55 UTC
Submitter:
Seeders:
4
File size:
8.4 GiB
Completed:
283
Info hash:
82aaf7d9ba488301822f3f6d25ecbde438bae467
![alt text](https://i.imgur.com/whWSIyK.jpg) **Synopsis:** Psycho-Pass Extended Edition aired from July 10, 2014 as a recap of Psycho-Pass and background for the 2014 release of Psycho-Pass 2. The series cuts the original 22 episodes down to eleven 45-minute episodes with new footage added alluding to events included in the official novel. Each episode features a new scene at the beginning and another in the middle, linking two consecutive episodes.The quality of the scenes is also upgraded, with repairs made to several bugs, and enhanced special effects, especially of the Dominator. **~Someone asked for the subtitles, so here's the link for those who want it. [Psycho-Pass Extended Edition Subtitle Link.](https://animetosho.org/storage/torattachpk/358176/%5BMysteria%5D%20PSYCHO-PASS%20Extended%20Edition%20%5BBD%201080p%5D%20%28HEVC%20x265%2010-bit%20Opus%29_attachments.7z)** **~Translator's Note: There were numerous issues with the subs and signs making this very time consuming, and a pain in the ass. I almost lost my shit when subbing this. I literally had to re-time e-v-e-r-y-t-h-i-n-g. I can see why Scyrous decided not to go through with this. But hey, somebody had to do it. All the action scenes have the audio amplified. It's pretty neat. What I liked the most about this is the extra inner monolugue and scenes, especially with Makashima. It provides a deeper explanation of Makashima's thoughts and his reasoning, including Akane's. I would recommend watching this if you want to understand the overarching story, or you want to rewatch season 1, but with extra scenes. Overall, this was worth the watch for me. Please seed to keep this alive for others.** **Description:** Title: Psycho-Pass Extended Edition *Original Source: **philosophy-raws: (https://nyaa.si/view/622081)** *Video Format: x265 HEVC 10bit mkv *Audio Codec: Japanese 2.0 Opus VBR (256 kbps) *Subtitle Sources: **SCY, Kametsu, (Signs and Songs)** *Duration: 46 minutes per episode *Subtitle: English *Resolution/Quality: 1920x1080 or 1080p HD *Genre: Crime, Cyberpunk, Psychological thriller *Age Rating: TV-MA **Media Info:** ``` General Unique ID : 329948871495872683018086483162783397060 (0xF839D7571E402DBB88AEBB4DEEA9B4C4) Complete name : C:\Users\Mysteria\Downloads\[Mysteria] Psycho-Pass Extended Edition [BD 1080p] (HEVC 10-bit Opus)\[Mysteria] Psycho-Pass Extended Edition - 01.mkv Format : Matroska Format version : Version 4 File size : 746 MiB Duration : 45 min 53 s Overall bit rate : 2 274 kb/s Movie name : [Mysteria] Psycho-Pass Extended Edition - 01 Encoded date : UTC 2020-07-05 18:35:20 Writing application : mkvmerge v48.0.0 ('Fortress Around Your Heart') 64-bit Writing library : libebml v1.4.0 + libmatroska v1.6.0 / Lavf58.29.100 Attachments : GandhiSans-Bold.otf / GandhiSans-BoldItalic.otf / Got_Heroin.ttf / HeiseiKakuGoStd-W5.otf / IwaMinPro-Madoka-Lt.ttf / IwaOMinPro-Bd-Fate.ttf / MinionPro-Regular.otf / SWZ721L.ttf / GandhiSans-Bold.otf / GandhiSans-BoldItalic.otf / Got_Heroin.ttf / HeiseiKakuGoStd-W5.otf / IwaMinPro-Madoka-Lt.ttf / IwaOMinPro-Bd-Fate.ttf / MinionPro-Regular.otf / SWZ721L.ttf Video ID : 1 Format : HEVC Format/Info : High Efficiency Video Coding Format profile : Main 10@L4@Main Codec ID : V_MPEGH/ISO/HEVC Duration : 45 min 53 s Bit rate : 1 989 kb/s Width : 1 920 pixels Height : 1 080 pixels Display aspect ratio : 16:9 Frame rate mode : Constant Frame rate : 23.976 (24000/1001) FPS Color space : YUV Chroma subsampling : 4:2:0 Bit depth : 10 bits Bits/(Pixel*Frame) : 0.040 Stream size : 653 MiB (87%) Title : HEVC 10-bit [Mysteria] Writing library : x265 3.2.1+1-b5c86a64bbbe:[Windows][GCC 9.2.0][64 bit] 10bit Encoding settings : cpuid=1111039 / frame-threads=3 / numa-pools=8 / wpp / no-pmode / no-pme / no-psnr / no-ssim / log-level=2 / input-csp=1 / input-res=1920x1080 / interlace=0 / total-frames=0 / level-idc=0 / high-tier=1 / uhd-bd=0 / ref=3 / no-allow-non-conformance / no-repeat-headers / annexb / no-aud / no-hrd / info / hash=0 / no-temporal-layers / open-gop / min-keyint=24 / keyint=240 / gop-lookahead=0 / bframes=8 / b-adapt=0 / b-pyramid / bframe-bias=0 / rc-lookahead=15 / lookahead-slices=6 / scenecut=40 / radl=0 / no-splice / no-intra-refresh / ctu=64 / min-cu-size=8 / no-rect / no-amp / max-tu-size=32 / tu-inter-depth=1 / tu-intra-depth=1 / limit-tu=0 / rdoq-level=0 / dynamic-rd=0.00 / no-ssim-rd / signhide / no-tskip / nr-intra=0 / nr-inter=0 / no-constrained-intra / strong-intra-smoothing / max-merge=2 / limit-refs=3 / no-limit-modes / me=1 / subme=2 / merange=57 / temporal-mvp / no-hme / weightp / no-weightb / no-analyze-src-pics / deblock=0:0 / sao / no-sao-non-deblock / rd=2 / selective-sao=4 / no-early-skip / rskip / fast-intra / no-tskip-fast / no-cu-lossless / no-b-intra / no-splitrd-skip / rdpenalty=0 / psy-rd=1.50 / psy-rdoq=0.00 / no-rd-refine / no-lossless / cbqpoffs=0 / crqpoffs=0 / rc=crf / crf=18.0 / qcomp=0.60 / qpstep=4 / stats-write=0 / stats-read=0 / ipratio=1.40 / pbratio=1.30 / aq-mode=3 / aq-strength=1.00 / cutree / zone-count=0 / no-strict-cbr / qg-size=32 / no-rc-grain / qpmax=69 / qpmin=0 / no-const-vbv / sar=1 / overscan=0 / videoformat=5 / range=0 / colorprim=1 / transfer=1 / colormatrix=1 / chromaloc=0 / display-window=0 / cll=0,0 / min-luma=0 / max-luma=1023 / log2-max-poc-lsb=8 / vui-timing-info / vui-hrd-info / slices=1 / no-opt-qp-pps / no-opt-ref-list-length-pps / no-multi-pass-opt-rps / scenecut-bias=0.05 / no-opt-cu-delta-qp / no-aq-motion / no-hdr / no-hdr-opt / no-dhdr10-opt / no-idr-recovery-sei / analysis-reuse-level=5 / scale-factor=0 / refine-intra=0 / refine-inter=0 / refine-mv=1 / refine-ctu-distortion=0 / no-limit-sao / ctu-info=0 / no-lowpass-dct / refine-analysis-type=0 / copy-pic=1 / max-ausize-factor=1.0 / no-dynamic-refine / no-single-sei / no-hevc-aq / no-svt / no-field / qp-adaptation-range=1.00 Language : Japanese Default : Yes Forced : No Color range : Limited Color primaries : BT.709 Transfer characteristics : BT.709 Matrix coefficients : BT.709 Audio ID : 2 Format : Opus Codec ID : A_OPUS Duration : 45 min 53 s Bit rate : 258 kb/s Channel(s) : 2 channels Channel layout : L R Sampling rate : 48.0 kHz Frame rate : 50.000 FPS (960 SPF) Compression mode : Lossy Delay relative to video : -7 ms Stream size : 84.8 MiB (11%) Title : Japanese 2.0 Opus (256 kbps) Language : Japanese Default : Yes Forced : No Text ID : 3 Format : ASS Codec ID : S_TEXT/ASS Codec ID/Info : Advanced Sub Station Alpha Duration : 45 min 42 s Bit rate : 149 b/s Count of elements : 681 Compression mode : Lossless Stream size : 50.2 KiB (0%) Title : Full Subtitles Language : English Default : Yes Forced : No Menu 00:00:00.000 : :Opening 00:03:40.971 : :Part A 00:13:32.979 : :Part B 00:16:51.052 : :Part C 00:22:56.166 : :Part D 00:25:27.192 : :Part E 00:34:47.085 : :Part F 00:44:20.741 : :Ending

File list

  • [Mysteria] Psycho-Pass Extended Edition [BD 1080p] (HEVC x265 10-bit Opus)
    • [Mysteria] Psycho-Pass Extended Edition - 01.mkv (746.3 MiB)
    • [Mysteria] Psycho-Pass Extended Edition - 02.mkv (1020.5 MiB)
    • [Mysteria] Psycho-Pass Extended Edition - 03.mkv (966.8 MiB)
    • [Mysteria] Psycho-Pass Extended Edition - 04.mkv (760.1 MiB)
    • [Mysteria] Psycho-Pass Extended Edition - 05.mkv (834.8 MiB)
    • [Mysteria] Psycho-Pass Extended Edition - 06.mkv (829.8 MiB)
    • [Mysteria] Psycho-Pass Extended Edition - 07.mkv (633.9 MiB)
    • [Mysteria] Psycho-Pass Extended Edition - 08.mkv (771.8 MiB)
    • [Mysteria] Psycho-Pass Extended Edition - 09.mkv (612.2 MiB)
    • [Mysteria] Psycho-Pass Extended Edition - 10.mkv (615.9 MiB)
    • [Mysteria] Psycho-Pass Extended Edition - 11.mkv (773.6 MiB)
finally, the extended version is here. i thought it will never come also, season 1 is the only psycho pass worth watching lol
THANK YOU for this. As you said, the only PSYCHO-PASS Extended Edition on nyaa that too on BD!

Ingenioussubs (uploader)

User
You’re welcome.
Watched this when it first aired and loved it, but never rewatched it again. This is perfect for a rewatch, thanks!
Thank you amazing person, been looking since forever for a proper encode for the Extended Edition

Ingenioussubs (uploader)

User
I was going to watch the HorribleSubs version. I realized how bad the translation was, and it was hardsubbed. I knew I had to create something better. For those of who you are curious, all the insert songs, and OP/ED have Scyrous and Kametsu’s subs. It’s like watching their release, but just extended.
Awesome work man. The timing is perfect, I was just about to watch psycho pass for the first time, and you dropped this gem.

Ingenioussubs (uploader)

User
I really worked hard on this. Glad you appreciate it.
thank you, you are a very good person
Thanks! I have the old extended edition BD's, but it uses CR subs. So this is better!

Ingenioussubs (uploader)

User
Yeah, I figured as much. Thanks for the valuable input!
Oh my god, you're the dood man, it's about what I expected from this (at most 6GB XD) but it doesn't matter, you're the best, please seed! I'm not a fansub or upload anything (mainly due to connection problems, my internet is bad to upload) but I will need to get to work on the subtitles for my personal enjoyment (it's not that I don't finish mastering English but you know, everything is better enjoyed in mother tongue), I understand what you mean, at least in my language (Spanish) many are still stuck in wanting to use only hardsub... (stupid .mp4) I'm going to have to take the subtitles of the normal version and translate extended parts... But... Thank you again!

Ingenioussubs (uploader)

User
You’re welcome. Glad I could help you out.
I don't know if you have any problem with this but Do you have any problem if I ask you to upload the subtitles? to save time xd

Ingenioussubs (uploader)

User
The subtitles are on **AnimeTosho.** Here's the **[subtitle link.](https://animetosho.org/storage/torattachpk/358176/%5BMysteria%5D%20PSYCHO-PASS%20Extended%20Edition%20%5BBD%201080p%5D%20%28HEVC%20x265%2010-bit%20Opus%29_attachments.7z)**
Thanks and thanks again because I didn't remember that site had that option lol

x69

User
I appreciate this release. I just really wish you would've used slow instead. In fact I'm willing to bet that the fast setting was an accident, wasn't it? ...Seeing as all your other releases are slow.

Ingenioussubs (uploader)

User
Nah, I used **fast CRF-18** because of the file size. The file size was originally huge, and I was aiming for **800MiB** per video. Using **slow CRF-18** would’ve made each video about **1GB,** so not really a big difference in terms of file size. **CRF-18** is a low preset to begin with, so the details are still well preserved. Other than that, just be glad I got the subs right. Re-timing and re-inserting the subtitles for this was **horrific.**

x69

User
Sure, but these are 45 minute episodes, they're supposed to be a lot larger than the average. And seeing as your Alicization episodes are over 1GB each on average for 24 minute episodes it doesn't seem like limiting this to an even lower standard makes much sense. Also, your Original Psycho-Pass: 18GB, Extended: 8GB. These numbers don't add up either for a mostly similar release in terms of runtime. Slow doesn't just raise the file size for nothing. The difference between slow and fast in preservation is massive especially for animated scenes. I know this because I'm currently making those exact comparisons with 2 shows I'm doing with the same settings but at different presets. It's a lot. So, I wasn't throwing shade, I just meant that I find it strange that you decided to change from slow for an action-oriented show especially since your reason is file size when it should be bigger specifically because each episode is longer. Anyway, like I said, I appreciate the release and thanks for doing the subs, because I can use them for my own encode now, even though I just would've preferred taking yours, since your usual standard is exactly what I like.