[NSBC] Life Senjou no Bokura E03 [WEBDL] [1080p]

Category:
Date:
2020-07-03 07:13 UTC
Submitter:
Seeders:
4
Information:
TlNCQy50bw==
Leechers:
2
File size:
369.7 MiB
Completed:
303
Info hash:
07193ed961e1deccdaac7caeb27caeb9d9bb83ab
> ### In case there is no seeder, visit [here](https://nosobacrew.wordpress.com/2020/06/20/life-senjou-no-bokura/) > ### English subs available at [Here](https://subscene.com/subtitles/lifelove-on-the-line-life-life-senjou-no-bokura) ![](https://img.topddl.net/images/2020/06/20/ogp.png "") ![](https://i.gyazo.com/e285e1fcd2d97444ffda348fed578412.jpg "") ``` General Unique ID : 336933530696707561310474714958259319541 (0xFD7B09A0653CE9FD08AC4C2BBB5472F5) Complete name : Life Senjou no Bokura S01E03 1080p WEB-DL AAC x264-NSBC.mkv Format : Matroska Format version : Version 4 File size : 370 MiB Duration : 31 min 37 s Overall bit rate : 1 634 kb/s Movie name : Life ~Senjou no Bokura~ S01E03 1080p WEB-DL AAC x264-NSBC Encoded by : NoNe | NSBC Encoded date : UTC 2020-07-03 06:45:07 Writing application : mkvmerge v29.0.0 ('Like It Or Not') 64-bit Writing library : libebml v1.3.6 + libmatroska v1.4.9 Copyright : NSBC Comment : NoNe | NSBC DATE_RECORDED : 2020 NOTICE ME : SENPAI WEBSITE : NSBC.to Video ID : 1 Format : AVC Format/Info : Advanced Video Codec Format profile : High@L4 Format settings : CABAC / 4 Ref Frames Format settings, CABAC : Yes Format settings, Reference frames : 4 frames Codec ID : V_MPEG4/ISO/AVC Duration : 31 min 37 s Bit rate : 1 445 kb/s Width : 1 920 pixels Height : 1 080 pixels Display aspect ratio : 16:9 Frame rate mode : Constant Frame rate : 24.000 FPS Color space : YUV Chroma subsampling : 4:2:0 Bit depth : 8 bits Scan type : Progressive Bits/(Pixel*Frame) : 0.029 Stream size : 326 MiB (88%) Title : [NSBC] Writing library : x264 core 148 Encoding settings : cabac=1 / ref=3 / deblock=1:0:0 / analyse=0x3:0x113 / me=umh / subme=10 / psy=1 / psy_rd=1.00:0.00 / mixed_ref=1 / me_range=24 / chroma_me=1 / trellis=2 / 8x8dct=1 / cqm=0 / deadzone=21,11 / fast_pskip=1 / chroma_qp_offset=-2 / threads=12 / lookahead_threads=1 / sliced_threads=0 / nr=0 / decimate=1 / interlaced=0 / bluray_compat=0 / constrained_intra=0 / bframes=3 / b_pyramid=2 / b_adapt=2 / b_bias=0 / direct=1 / weightb=1 / open_gop=0 / weightp=2 / keyint=120 / keyint_min=61 / scenecut=0 / intra_refresh=0 / rc_lookahead=60 / rc=2pass / mbtree=1 / bitrate=1445 / ratetol=1.0 / qcomp=0.60 / qpmin=0 / qpmax=69 / qpstep=4 / cplxblur=20.0 / qblur=0.5 / vbv_maxrate=3900 / vbv_bufsize=4335 / nal_hrd=none / filler=0 / ip_ratio=1.40 / aq=1:1.00 Default : Yes Forced : No Audio ID : 2 Format : AAC LC Format/Info : Advanced Audio Codec Low Complexity Codec ID : A_AAC-2 Duration : 31 min 37 s Bit rate : 192 kb/s Channel(s) : 2 channels Channel layout : L R Sampling rate : 48.0 kHz Frame rate : 46.875 FPS (1024 SPF) Compression mode : Lossy Delay relative to video : -83 ms Stream size : 43.4 MiB (12%) Title : [NSBC] Language : Japanese Default : Yes Forced : No ```

File list

  • Life ~Senjou no Bokura~ S01E03 1080p WEB-DL AAC x264-NSBC.mkv (369.7 MiB)

NOSoba (uploader)

User
> ### English subs available at [Here](https://subscene.com/subtitles/lifelove-on-the-line-life-life-senjou-no-bokura)