[wakajbr] Doraemon 12th (Nobita's Dorabian Nights) (1991) 1920x1080p [Dual Audio] [Jap-Hindi]

Category:
Date:
2020-06-30 09:15 UTC
Submitter:
Anonymous
Seeders:
4
Information:
Leechers:
2
File size:
3.9 GiB
Completed:
42
Info hash:
c7578d9ce229bf9dfb916fb15381ae5ad14db754
Video ID : 1 Format : AVC Format/Info : Advanced Video Codec Format profile : High@L5.1 Format settings : CABAC / 16 Ref Frames Format settings, CABAC : Yes Format settings, Reference frames : 16 frames Codec ID : V_MPEG4/ISO/AVC Duration : 1 h 39 min Bit rate : 5 000 kb/s Width : 1 920 pixels Height : 1 080 pixels Display aspect ratio : 16:9 Frame rate mode : Constant Frame rate : 23.976 (24000/1001) FPS Color space : YUV Chroma subsampling : 4:2:0 Bit depth : 8 bits Scan type : Progressive Bits/(Pixel*Frame) : 0.101 Stream size : 3.50 GiB (91%) Writing library : x264 core 148 r2762 90a61ec Encoding settings : opencl=1 / cabac=1 / ref=16 / deblock=1:1:1 / analyse=0x3:0x113 / me=tesa / subme=11 / psy=1 / psy_rd=0.40:0.00 / mixed_ref=1 / me_range=24 / chroma_me=1 / trellis=2 / 8x8dct=1 / cqm=0 / deadzone=21,11 / fast_pskip=0 / chroma_qp_offset=-2 / threads=12 / lookahead_threads=3 / sliced_threads=0 / nr=0 / decimate=1 / interlaced=0 / bluray_compat=0 / constrained_intra=0 / bframes=16 / b_pyramid=2 / b_adapt=2 / b_bias=0 / direct=3 / weightb=1 / open_gop=0 / weightp=2 / keyint=250 / keyint_min=23 / scenecut=40 / intra_refresh=0 / rc_lookahead=60 / rc=abr / mbtree=1 / bitrate=5000 / ratetol=1.0 / qcomp=0.60 / qpmin=0 / qpmax=69 / qpstep=4 / ip_ratio=1.40 / aq=1:0.00 Default : Yes Forced : No Audio #1 ID : 2 Format : AAC LC Format/Info : Advanced Audio Codec Low Complexity Codec ID : A_AAC-2 Duration : 1 h 39 min Bit rate : 192 kb/s Channel(s) : 2 channels Channel layout : L R Sampling rate : 44.1 kHz Frame rate : 43.066 FPS (1024 SPF) Compression mode : Lossy Stream size : 137 MiB (3%) Language : Japanese Default : No Forced : No Audio #2 ID : 3 Format : AAC LC Format/Info : Advanced Audio Codec Low Complexity Codec ID : A_AAC-2 Duration : 1 h 39 min Bit rate : 317 kb/s Channel(s) : 2 channels Channel layout : L R Sampling rate : 48.0 kHz Frame rate : 46.875 FPS (1024 SPF) Compression mode : Lossy Stream size : 226 MiB (6%) Language : Hindi Default : Yes Forced : Yes Text ID : 4 Format : UTF-8 Codec ID : S_TEXT/UTF8 Codec ID/Info : UTF-8 Plain Text Duration : 1 h 36 min Bit rate : 56 b/s Count of elements : 1598 Stream size : 40.1 KiB (0%) Language : English Default : Yes Forced : No Video Source: [Pandoratv-raws] https://nyaa.si/view/1209196 Hindi Audio Source: DeadToons India The Audio was synced to the video except for the scenes that were censored in India. Subs were synced and muxed. Please don’t be mean in the comments. Follow me on my Instagram. More such releases coming soon. I have limited internet resources so please SEED.

File list

  • [wakajbr] Doraemon 12th (Nobita's Dorabian Nights) (1991) [Jap-Hindi].mkv (3.9 GiB)
Great job. Any plans for doing the other ones?
Yes. I'm planning on dubbing all the 27 movies that were released in India. The rest 13 were made available by [Pandoratv-raws] who did an excellent job with the WOWOW and BD remuxs. I was too frustrated when I couldn't find a decent looking Hindi source, which is my mother tongue so I planned to make it on my own. All I ask of the leechers is to keep seeding them coz I have a limited internet connection.
Better to have a discord channel that this mate, looks good but i doubt fellow indians would seed it, though its dual audio, i don't as my isp deducts both upload and download in fup
bhai internet to iska bhi kat raha hai. bas kuch bande chahiye jo sirf apne bare me na soche, shayad jaankari ke abhaw ke karan kuch jhijhak hoti hai, agar ho sake to zara kasht uthane ki zehmat kare. bhale hi torrent website hai lekin aap sirf torrent madhyam se share karne ko seemit nahin hai yahan pe. :) wakajbr, bhai dubbing see kya matlab hai, aap fandub karoge kya? padhne see waisa hi laga, mujhe jankaari nahin hai doraemon ki jyaada.
I'm talking about adding the Tv telecasted Hindi audio to BD sources that are currently in circulation. I'll be linking everything that I mux in the description.