The Helpful Fox Senko-san [ZECHS] [Dual Audio] [HEVC] [BDRip] [HD 1080p]

Category:
Date:
2020-06-30 09:07 UTC
Submitter:
Seeders:
7
Information:
No information.
Leechers:
3
File size:
6.3 GiB
Completed:
114
Info hash:
0f05eacb3339046dc62b9577c82dd1c4f9bf100a
**SOURCES:** **Video:** Snow-Raws **Audio:** Exiled-Destiny **Subtitles:** Exiled-Destiny **_____________________________** General Unique ID : 271416037533423023588137481541414252622 (0xCC30D3D0F63C68429D2200A6903B704E) Complete name : The Helpful Fox Senko-san - S01E01 - I'm going to pamper him to his heart's content!.mkv Format : Matroska Format version : Version 4 / Version 2 File size : 565 MiB Duration : 23 min 37 s Overall bit rate : 3 347 kb/s Encoded by : ZECHS Encoded date : UTC 2020-06-28 13:23:33 Writing application : mkvmerge v48.0.0 ('Fortress Around Your Heart') 64-bit Writing library : libebml v1.4.0 + libmatroska v1.6.0 / Lavf57.83.100 Video ID : 1 Format : HEVC Format/Info : High Efficiency Video Coding Format profile : Main 10@L4@Main Codec ID : V_MPEGH/ISO/HEVC Duration : 23 min 36 s Bit rate : 2 569 kb/s Width : 1 920 pixels Height : 1 080 pixels Display aspect ratio : 16:9 Frame rate mode : Constant Frame rate : 23.976 (24000/1001) FPS Color space : YUV Chroma subsampling : 4:2:0 Bit depth : 10 bits Bits/(Pixel*Frame) : 0.052 Stream size : 434 MiB (77%) Writing library : x265 3.1+5-9c5c9cef2a86:[Windows][GCC 9.1.0][64 bit] 10bit Encoding settings : cpuid=1111039 / frame-threads=4 / numa-pools=16 / wpp / no-pmode / no-pme / no-psnr / no-ssim / log-level=2 / input-csp=1 / input-res=1920x1080 / interlace=0 / total-frames=0 / level-idc=0 / high-tier=1 / uhd-bd=0 / ref=4 / no-allow-non-conformance / no-repeat-headers / annexb / no-aud / no-hrd / info / hash=0 / no-temporal-layers / no-open-gop / min-keyint=1 / keyint=324 / gop-lookahead=0 / bframes=8 / b-adapt=2 / b-pyramid / bframe-bias=0 / rc-lookahead=80 / lookahead-slices=0 / scenecut=40 / radl=0 / no-splice / no-intra-refresh / ctu=32 / min-cu-size=8 / no-rect / no-amp / max-tu-size=32 / tu-inter-depth=2 / tu-intra-depth=2 / limit-tu=2 / rdoq-level=2 / dynamic-rd=0.00 / no-ssim-rd / signhide / no-tskip / nr-intra=0 / nr-inter=0 / no-constrained-intra / no-strong-intra-smoothing / max-merge=3 / limit-refs=2 / no-limit-modes / me=3 / subme=4 / merange=57 / temporal-mvp / weightp / no-weightb / no-analyze-src-pics / deblock=-1:-1 / no-sao / no-sao-non-deblock / rd=6 / early-skip / rskip / no-fast-intra / no-tskip-fast / no-cu-lossless / b-intra / no-splitrd-skip / rdpenalty=0 / psy-rd=2.00 / psy-rdoq=0.90 / no-rd-refine / no-lossless / cbqpoffs=-1 / crqpoffs=-1 / rc=crf / crf=15.7 / qcomp=0.65 / qpstep=4 / stats-write=0 / stats-read=0 / ipratio=1.40 / pbratio=1.30 / aq-mode=3 / aq-strength=0.90 / cutree / zone-count=0 / no-strict-cbr / qg-size=32 / no-rc-grain / qpmax=69 / qpmin=0 / no-const-vbv / sar=0 / overscan=0 / videoformat=5 / range=0 / colorprim=2 / transfer=2 / colormatrix=1 / chromaloc=0 / display-window=0cll=0,0 / min-luma=0 / max-luma=1023 / log2-max-poc-lsb=8 / vui-timing-info / vui-hrd-info / slices=1 / opt-qp-pps / opt-ref-list-length-pps / no-multi-pass-opt-rps / scenecut-bias=0.05 / no-opt-cu-delta-qp / no-aq-motion / no-hdr / no-hdr-opt / no-dhdr10-opt / no-idr-recovery-sei / analysis-reuse-level=5 / scale-factor=0 / refine-intra=0 / refine-inter=0 / refine-mv=0 / refine-ctu-distortion=0 / no-limit-sao / ctu-info=0 / no-lowpass-dct / refine-analysis-type=0 / copy-pic=1 / max-ausize-factor=1.0 / no-dynamic-refine / no-single-sei / no-hevc-aq / no-svt / no-field / qp-adaptation-range=1.00 Language : Japanese Default : Yes Forced : No Color range : Limited Matrix coefficients : BT.709 Audio #1 ID : 2 Format : AAC Format/Info : Advanced Audio Codec Format profile : LC Codec ID : A_AAC-2 Duration : 23 min 37 s Bit rate : 448 kb/s Channel(s) : 6 channels Channel positions : Front: L C R, Side: L R, LFE Sampling rate : 48.0 kHz Frame rate : 46.875 FPS (1024 SPF) Compression mode : Lossy Delay relative to video : -1 s 0 ms Stream size : 75.7 MiB (13%) Writing library : Lavc57.107.100 aac Language : English Default : Yes Forced : No Audio #2 ID : 3 Format : AAC Format/Info : Advanced Audio Codec Format profile : LC Codec ID : A_AAC-2 Duration : 23 min 36 s Bit rate : 314 kb/s Channel(s) : 2 channels Channel positions : Front: L R Sampling rate : 48.0 kHz Frame rate : 46.875 FPS (1024 SPF) Compression mode : Lossy Stream size : 53.0 MiB (9%) Writing library : Lavc57.107.100 aac Language : Japanese Default : No Forced : No Text #1 ID : 4 Format : PGS Muxing mode : zlib Codec ID : S_HDMV/PGS Codec ID/Info : Picture based subtitle format used on BDs/HD-DVDs Duration : 21 min 51 s Bit rate : 9 653 b/s Count of elements : 137 Stream size : 1.51 MiB (0%) Title : Signs & Songs Language : English Default : No Forced : No Text #2 ID : 5 Format : PGS Muxing mode : zlib Codec ID : S_HDMV/PGS Codec ID/Info : Picture based subtitle format used on BDs/HD-DVDs Duration : 23 min 19 s Bit rate : 36.6 kb/s Count of elements : 637 Stream size : 6.11 MiB (1%) Title : Full Subtitles Language : English Default : No Forced : No Menu 00:00:00.000 : :00:00:00.000 00:02:05.000 : :00:02:05.000 00:03:35.006 : :00:03:35.006 00:10:51.025 : :00:10:51.025 00:20:43.284 : :00:20:43.284 00:22:13.249 : :00:22:13.249

File list

  • The Helpful Fox Senko-san [ZECHS] [Dual Audio] [HEVC] [BDRip] [HD 1080p]
    • The Helpful Fox Senko-san - S01E01 - I'm going to pamper him to his heart's content!.mkv (565.4 MiB)
    • The Helpful Fox Senko-san - S01E02 - Don't be shy, now!.mkv (505.5 MiB)
    • The Helpful Fox Senko-san - S01E03 - As long as you're happy.mkv (512.2 MiB)
    • The Helpful Fox Senko-san - S01E04 - Why must you work on a day off!.mkv (522.0 MiB)
    • The Helpful Fox Senko-san - S01E05 - I've got a tail, too, you know.mkv (537.6 MiB)
    • The Helpful Fox Senko-san - S01E06 - You just want to fluff more.mkv (527.0 MiB)
    • The Helpful Fox Senko-san - S01E07 - You smell like another fox.mkv (504.4 MiB)
    • The Helpful Fox Senko-san - S01E08 - I'll make you forget all about it.mkv (644.6 MiB)
    • The Helpful Fox Senko-san - S01E09 - Is this less embarrassing for you.mkv (503.6 MiB)
    • The Helpful Fox Senko-san - S01E10 - It’s Nice to Let Your Inner Child Out Now and Then, Isn’t It.mkv (548.5 MiB)
    • The Helpful Fox Senko-san - S01E11 - It's Going to Be a Rough Night.mkv (505.6 MiB)
    • The Helpful Fox Senko-san - S01E12 - Still....mkv (571.6 MiB)