Dragon Ball Z La Resurrección De Freezer Future Trunks [720p HDTV] [JP + Subs]

Category:
Date:
2020-06-30 01:03 UTC
Submitter:
Seeders:
1
Information:
No information.
Leechers:
0
File size:
387.7 MiB
Completed:
10
Info hash:
46eaa97fcf5d8b7e154654012a563b9fb4f330bd
**MEDIAINFO:** Video ID : 1 Format : AVC Format/Info : Advanced Video Codec Format profile : High 10@L3.1 Format settings : CABAC / 4 Ref Frames Format settings, CABAC : Yes Format settings, Reference : 4 frames Codec ID : V_MPEG4/ISO/AVC Duration : 12 min 49 s Bit rate : 3 936 kb/s Width : 1 280 pixels Height : 720 pixels Display aspect ratio : 16:9 Frame rate mode : Constant Frame rate : 23.976 (24000/1001) FPS Color space : YUV Chroma subsampling : 4:2:0 Bit depth : 10 bits Scan type : Progressive Bits/(Pixel*Frame) : 0.178 Stream size : 361 MiB (93%) Title : Japones / D&M´s PROJECTS Writing library : x264 core 148 r2744 b97ae06 Encoding settings : cabac=1 / ref=4 / deblock=1:0:0 / analyse=0x3:0x133 / me=tesa / subme=11 / psy=1 / psy_rd=1.00:0.00 / mixed_ref=1 / me_range=24 / chroma_me=1 / trellis=2 / 8x8dct=1 / cqm=0 / deadzone=21,11 / fast_pskip=0 / chroma_qp_offset=-2 / threads=6 / lookahead_threads=1 / sliced_threads=0 / nr=0 / decimate=1 / interlaced=0 / bluray_compat=0 / constrained_intra=0 / bframes=16 / b_pyramid=2 / b_adapt=2 / b_bias=0 / direct=3 / weightb=1 / open_gop=0 / weightp=2 / keyint=240 / keyint_min=23 / scenecut=40 / intra_refresh=0 / rc_lookahead=60 / rc=crf / mbtree=1 / crf=15.0 / qcomp=0.60 / qpmin=0 / qpmax=81 / qpstep=4 / ip_ratio=1.40 / aq=1:1.00 Language : Japanese Default : Yes Forced : No Audio ID : 2 Format : AC-3 Format/Info : Audio Coding 3 Commercial name : Dolby Digital Codec ID : A_AC3 Duration : 12 min 49 s Bit rate mode : Constant Bit rate : 256 kb/s Channel(s) : 2 channels Channel layout : L R Sampling rate : 48.0 kHz Frame rate : 31.250 FPS (1536 SPF) Compression mode : Lossy Stream size : 23.5 MiB (6%) Title : Japones / D&M´s PROJECTS Language : Japanese Service kind : Complete Main Default : Yes Forced : No Text ID : 3 Format : ASS Codec ID : S_TEXT/ASS Codec ID/Info : Advanced Sub Station Alpha Duration : 12 min 5 s Bit rate : 83 b/s Count of elements : 104 Compression mode : Lossless Stream size : 7.37 KiB (0%) Title : Español Latino / D&M´s PROJECTS Language : Spanish Default : Yes Forced : No **[Si te gusta este lanzamiento por favor siembra]** ![alt text](https://i.ibb.co/StmkgxG/Dragon-Ball-Z-La-Resurrecci-n-De-Freezer-Future-Trunks-720p-HDTV-JP-Subs-mkv-snapshot-00-52-619.png) ![alt text](https://i.ibb.co/m56WQbS/Dragon-Ball-Z-La-Resurrecci-n-De-Freezer-Future-Trunks-720p-HDTV-JP-Subs-mkv-snapshot-02-10-128.png) ![alt text](https://i.ibb.co/Jc4RVwQ/Dragon-Ball-Z-La-Resurrecci-n-De-Freezer-Future-Trunks-720p-HDTV-JP-Subs-mkv-snapshot-08-46-317.png) ![alt text](https://i.ibb.co/FxVNsY7/Dragon-Ball-Z-La-Resurrecci-n-De-Freezer-Future-Trunks-720p-HDTV-JP-Subs-mkv-snapshot-12-10-355.png) ![alt text](https://i.ibb.co/Tk2L6wf/Dragon-Ball-Z-La-Resurrecci-n-De-Freezer-Future-Trunks-720p-HDTV-JP-Subs-mkv-snapshot-12-12-357.png)

File list

  • Dragon Ball Z La Resurrección De Freezer Future Trunks [720p HDTV] [JP + Subs].mkv (387.7 MiB)