[x286d] Ultraman Z #EP01 [WEB-DL 1080p]

Category:
Date:
2020-06-28 02:15 UTC
Submitter:
Seeders:
1
Information:
No information.
Leechers:
0
File size:
796.7 MiB
Completed:
93
Info hash:
6578b2f7570ea652a6b560074285c54dfc3cccdc
```General Complete name : [x286d] Ultraman Z #EP01 [WEB-DL 1080p].mp4 Format : MPEG-4 Format profile : Base Media Codec ID : isom (isom) File size : 797 MiB Duration : 24 min 37 s Overall bit rate mode : Variable Overall bit rate : 4 525 kb/s Encoded date : UTC 2020-06-28 02:01:02 Tagged date : UTC 2020-06-28 02:01:02 Video ID : 1 Format : AVC Format/Info : Advanced Video Codec Format profile : High@L4 Format settings : CABAC / 3 Ref Frames Format settings, CABAC : Yes Format settings, Reference : 3 frames Codec ID : avc1 Codec ID/Info : Advanced Video Coding Duration : 24 min 36 s Bit rate : 4 327 kb/s Maximum bit rate : 16.2 Mb/s Width : 1 920 pixels Height : 1 080 pixels Display aspect ratio : 16:9 Frame rate mode : Constant Frame rate : 23.976 FPS Color space : YUV Chroma subsampling : 4:2:0 Bit depth : 8 bits Scan type : Progressive Bits/(Pixel*Frame) : 0.087 Stream size : 762 MiB (96%) Tagged date : UTC 2020-06-28 02:01:05 Codec configuration box : avcC Audio ID : 2 Format : AAC LC Format/Info : Advanced Audio Codec Low Complexity Codec ID : mp4a-40-2 Duration : 24 min 37 s Bit rate mode : Variable Bit rate : 192 kb/s Maximum bit rate : 199 kb/s Channel(s) : 2 channels Channel layout : L R Sampling rate : 48.0 kHz Frame rate : 46.875 FPS (1024 SPF) Compression mode : Lossy Stream size : 33.8 MiB (4%) Encoded date : UTC 2020-06-28 01:58:30 Tagged date : UTC 2020-06-28 02:01:05

File list

  • [x286d] Ultraman Z #EP01 [WEB-DL 1080p].mp4 (796.7 MiB)