A Whisker Away [1080p WEB-DL] [JP + LATIN SPANISH (SUB) + ENGLISH (SUB)]

Category:
Date:
2020-06-22 00:35 UTC
Submitter:
Seeders:
0
Information:
No information.
Leechers:
0
File size:
2.7 GiB
Completed:
250
Info hash:
39c47787115120b2af02a76132e8592ea493afc8
![alt text](https://i.ibb.co/9ghqk08/zentauroepp53783366-icult200617124445-1592390863420.jpg) MEDIAINFO: Video ID : 1 Format : AVC Format/Info : Advanced Video Codec Format profile : Main@L4 Format settings : CABAC / 3 Ref Frames Format settings, CABAC : Yes Format settings, Reference : 3 frames Format settings, GOP : M=3, N=48 Codec ID : V_MPEG4/ISO/AVC Duration : 1 h 44 min Bit rate mode : Variable Bit rate : 3 006 kb/s Maximum bit rate : 4 515 kb/s Width : 1 920 pixels Height : 1 080 pixels Display aspect ratio : 16:9 Frame rate mode : Constant Frame rate : 23.976 (24000/1001) FPS Color space : YUV Chroma subsampling : 4:2:0 Bit depth : 8 bits Scan type : Progressive Bits/(Pixel*Frame) : 0.060 Stream size : 2.18 GiB (82%) Title : Japones / D&M´s PROJECTS Language : Japanese Default : Yes Forced : No Audio ID : 2 Format : E-AC-3 Format/Info : Enhanced AC-3 Commercial name : Dolby Digital Plus Codec ID : A_EAC3 Duration : 1 h 44 min Bit rate mode : Constant Bit rate : 640 kb/s Channel(s) : 6 channels Channel layout : L R C LFE Ls Rs Sampling rate : 48.0 kHz Frame rate : 31.250 FPS (1536 SPF) Compression mode : Lossy Delay relative to video : 2 ms Stream size : 476 MiB (18%) Title : Japones / D&M´s PROJECTS Language : Japanese Service kind : Complete Main Default : Yes Forced : No Text #1 ID : 3 Format : UTF-8 Codec ID : S_TEXT/UTF8 Codec ID/Info : UTF-8 Plain Text Duration : 1 h 43 min Bit rate : 54 b/s Count of elements : 1391 Stream size : 41.4 KiB (0%) Title : Español Latino / D&M´s PROJECTS Language : Spanish Default : Yes Forced : No Text #2 ID : 4 Format : UTF-8 Codec ID : S_TEXT/UTF8 Codec ID/Info : UTF-8 Plain Text Duration : 1 h 43 min Bit rate : 53 b/s Count of elements : 1390 Stream size : 40.9 KiB (0%) Title : English / D&M´s PROJECTS Language : English Default : No Forced : No **[If you like this release please seed]** **https://discord.gg/fPZBuZC** ![alt text](https://cdn.discordapp.com/attachments/716023465265725490/724418421156085870/Amor_De_Gata_1080p_WEB-DL_JP__Subs.mkv_snapshot_00.05.54.354.png) ![alt text](https://cdn.discordapp.com/attachments/716023465265725490/724418463220760576/Amor_De_Gata_1080p_WEB-DL_JP__Subs.mkv_snapshot_00.14.34.082.png) ![alt text](https://cdn.discordapp.com/attachments/716023465265725490/724418489443549244/Amor_De_Gata_1080p_WEB-DL_JP__Subs.mkv_snapshot_01.06.56.012.png) ![alt text](https://cdn.discordapp.com/attachments/716023465265725490/724418520540119060/Amor_De_Gata_1080p_WEB-DL_JP__Subs.mkv_snapshot_01.27.53.268.png)

File list

  • Amor De Gata [1080p WEB-DL] [JP + Subs].mkv (2.7 GiB)