Re:Zero.S01.1080p.Blu-Ray.10-Bit.Dual-Audio.TrueHD.x265-iAHD

Category:
Date:
2020-06-21 02:20 UTC
Submitter:
Seeders:
11
Information:
No information.
Leechers:
0
File size:
30.0 GiB
Completed:
1401
Info hash:
183f4f10fcc1368b0482386dc657a9fc278bf5e0
Video ID : 1 Format : HEVC Format/Info : High Efficiency Video Coding Format profile : Main 10@L5@Main Codec ID : V_MPEGH/ISO/HEVC Duration : 49 min 10 s Bit rate : 3 739 kb/s Width : 1 920 pixels Height : 1 080 pixels Display aspect ratio : 16:9 Frame rate mode : Constant Frame rate : 23.976 (24000/1001) FPS Color space : YUV Chroma subsampling : 4:2:0 Bit depth : 10 bits Bits/(Pixel*Frame) : 0.075 Stream size : 1.28 GiB (65%) Writing library : x265 3.2.1+1-b5c86a64bbbe:[Windows][GCC 9.2.0][64 bit] 10bit Encoding settings : cpuid=1111039 / frame-threads=4 / numa-pools=16 / wpp / no-pmode / no-pme / no-psnr / no-ssim / log-level=2 / input-csp=1 / input-res=1920x1080 / interlace=0 / total-frames=0 / level-idc=0 / high-tier=1 / uhd-bd=0 / ref=6 / no-allow-non-conformance / no-repeat-headers / annexb / no-aud / no-hrd / info / hash=0 / no-temporal-layers / open-gop / min-keyint=24 / keyint=240 / gop-lookahead=0 / bframes=16 / b-adapt=2 / b-pyramid / bframe-bias=0 / rc-lookahead=50 / lookahead-slices=4 / scenecut=40 / radl=0 / no-splice / no-intra-refresh / ctu=32 / min-cu-size=8 / no-rect / no-amp / max-tu-size=32 / tu-inter-depth=1 / tu-intra-depth=3 / limit-tu=0 / rdoq-level=2 / dynamic-rd=0.00 / no-ssim-rd / signhide / tskip / nr-intra=0 / nr-inter=0 / no-constrained-intra / no-strong-intra-smoothing / max-merge=3 / limit-refs=3 / limit-modes / me=3 / subme=3 / merange=57 / temporal-mvp / no-hme / weightp / no-weightb / no-analyze-src-pics / deblock=1:1 / no-sao / no-sao-non-deblock / rd=4 / selective-sao=0 / no-early-skip / rskip / no-fast-intra / tskip-fast / no-cu-lossless / no-b-intra / no-splitrd-skip / rdpenalty=0 / psy-rd=0.80 / psy-rdoq=2.00 / no-rd-refine / no-lossless / cbqpoffs=0 / crqpoffs=0 / rc=crf / crf=16.0 / qcomp=0.60 / qpstep=4 / stats-write=0 / stats-read=0 / ipratio=1.40 / pbratio=1.30 / aq-mode=3 / aq-strength=1.25 / cutree / zone-count=0 / no-strict-cbr / qg-size=32 / no-rc-grain / qpmax=69 / qpmin=0 / no-const-vbv / sar=1 / overscan=0 / videoformat=5 / range=0 / colorprim=1 / transfer=1 / colormatrix=1 / chromaloc=0 / display-window=0 / cll=0,0 / min-luma=0 / max-luma=1023 / log2-max-poc-lsb=8 / vui-timing-info / vui-hrd-info / slices=1 / no-opt-qp-pps / no-opt-ref-list-length-pps / no-multi-pass-opt-rps / scenecut-bias=0.05 / no-opt-cu-delta-qp / no-aq-motion / no-hdr / no-hdr-opt / no-dhdr10-opt / no-idr-recovery-sei / analysis-reuse-level=5 / scale-factor=0 / refine-intra=0 / refine-inter=0 / refine-mv=1 / refine-ctu-distortion=0 / no-limit-sao / ctu-info=0 / no-lowpass-dct / refine-analysis-type=0 / copy-pic=1 / max-ausize-factor=1.0 / no-dynamic-refine / no-single-sei / no-hevc-aq / no-svt / no-field / qp-adaptation-range=1.00 Language : English Default : Yes Forced : No Color range : Limited Color primaries : BT.709 Transfer characteristics : BT.709 Matrix coefficients : BT.709 Audio #1 ID : 2 Format : MLP FBA Format/Info : Meridian Lossless Packing FBA Commercial name : Dolby TrueHD Codec ID : A_TRUEHD Duration : 49 min 10 s Bit rate mode : Variable Bit rate : 1 129 kb/s Maximum bit rate : 1 611 kb/s Channel(s) : 2 channels Channel layout : L R Sampling rate : 48.0 kHz Frame rate : 1 200.000 FPS (40 SPF) Compression mode : Lossless Stream size : 397 MiB (19%) Language : English Default : Yes Forced : No Audio #2 ID : 3 Format : MLP FBA Format/Info : Meridian Lossless Packing FBA Commercial name : Dolby TrueHD Codec ID : A_TRUEHD Duration : 49 min 10 s Bit rate mode : Variable Bit rate : 791 kb/s Maximum bit rate : 1 311 kb/s Channel(s) : 2 channels Channel layout : L R Sampling rate : 48.0 kHz Frame rate : 1 200.000 FPS (40 SPF) Compression mode : Lossless Stream size : 278 MiB (14%) Language : Japanese Default : No Forced : No Text #1 ID : 4 Format : PGS Muxing mode : zlib Codec ID : S_HDMV/PGS Codec ID/Info : Picture based subtitle format used on BDs/HD-DVDs Duration : 48 min 28 s Bit rate : 1 542 b/s Count of elements : 54 Stream size : 547 KiB (0%) Title : Signs / Songs Language : English Default : Yes Forced : No Text #2 ID : 5 Format : PGS Muxing mode : zlib Codec ID : S_HDMV/PGS Codec ID/Info : Picture based subtitle format used on BDs/HD-DVDs Duration : 49 min 1 s Bit rate : 52.2 kb/s Count of elements : 1595 Stream size : 18.3 MiB (1%) Title : Dialogue Language : English Default : No Forced : No Menu 00:00:00.000 : en:Chapter 01 00:02:31.026 : en:Chapter 02 00:13:29.684 : en:Chapter 03 00:25:04.837 : en:Chapter 04 00:34:47.836 : en:Chapter 05 00:47:32.600 : en:Chapter 06

File list

  • Re.Zero.S01.1080p.Blu-Ray.10-Bit.Dual-Audio.TrueHD.x265-iAHD
    • Re.Zero.S01E01.1080p.Blu-Ray.10-Bit.Dual-Audio.TrueHD.x265-iAHD.mkv (2.0 GiB)
    • Re.Zero.S01E02.1080p.Blu-Ray.10-Bit.Dual-Audio.TrueHD.x265-iAHD.mkv (1.1 GiB)
    • Re.Zero.S01E03.1080p.Blu-Ray.10-Bit.Dual-Audio.TrueHD.x265-iAHD.mkv (1.0 GiB)
    • Re.Zero.S01E04.1080p.Blu-Ray.10-Bit.Dual-Audio.TrueHD.x265-iAHD.mkv (1.0 GiB)
    • Re.Zero.S01E05.1080p.Blu-Ray.10-Bit.Dual-Audio.TrueHD.x265-iAHD.mkv (1023.1 MiB)
    • Re.Zero.S01E06.1080p.Blu-Ray.10-Bit.Dual-Audio.TrueHD.x265-iAHD.mkv (1.0 GiB)
    • Re.Zero.S01E07.1080p.Blu-Ray.10-Bit.Dual-Audio.TrueHD.x265-iAHD.mkv (1.1 GiB)
    • Re.Zero.S01E08.1080p.Blu-Ray.10-Bit.Dual-Audio.TrueHD.x265-iAHD.mkv (1.0 GiB)
    • Re.Zero.S01E09.1080p.Blu-Ray.10-Bit.Dual-Audio.TrueHD.x265-iAHD.mkv (950.9 MiB)
    • Re.Zero.S01E10.1080p.Blu-Ray.10-Bit.Dual-Audio.TrueHD.x265-iAHD.mkv (1.4 GiB)
    • Re.Zero.S01E11.1080p.Blu-Ray.10-Bit.Dual-Audio.TrueHD.x265-iAHD.mkv (1.4 GiB)
    • Re.Zero.S01E12.1080p.Blu-Ray.10-Bit.Dual-Audio.TrueHD.x265-iAHD.mkv (939.1 MiB)
    • Re.Zero.S01E13.1080p.Blu-Ray.10-Bit.Dual-Audio.TrueHD.x265-iAHD.mkv (1.1 GiB)
    • Re.Zero.S01E14.1080p.Blu-Ray.10-Bit.Dual-Audio.TrueHD.x265-iAHD.mkv (1.1 GiB)
    • Re.Zero.S01E15.1080p.Blu-Ray.10-Bit.Dual-Audio.TrueHD.x265-iAHD.mkv (1.3 GiB)
    • Re.Zero.S01E16.1080p.Blu-Ray.10-Bit.Dual-Audio.TrueHD.x265-iAHD.mkv (1.1 GiB)
    • Re.Zero.S01E17.1080p.Blu-Ray.10-Bit.Dual-Audio.TrueHD.x265-iAHD.mkv (1.2 GiB)
    • Re.Zero.S01E18.1080p.Blu-Ray.10-Bit.Dual-Audio.TrueHD.x265-iAHD.mkv (1.5 GiB)
    • Re.Zero.S01E19.1080p.Blu-Ray.10-Bit.Dual-Audio.TrueHD.x265-iAHD.mkv (1.2 GiB)
    • Re.Zero.S01E20.1080p.Blu-Ray.10-Bit.Dual-Audio.TrueHD.x265-iAHD.mkv (1.4 GiB)
    • Re.Zero.S01E21.1080p.Blu-Ray.10-Bit.Dual-Audio.TrueHD.x265-iAHD.mkv (1.2 GiB)
    • Re.Zero.S01E22.1080p.Blu-Ray.10-Bit.Dual-Audio.TrueHD.x265-iAHD.mkv (1.2 GiB)
    • Re.Zero.S01E23.1080p.Blu-Ray.10-Bit.Dual-Audio.TrueHD.x265-iAHD.mkv (1.2 GiB)
    • Re.Zero.S01E24.1080p.Blu-Ray.10-Bit.Dual-Audio.TrueHD.x265-iAHD.mkv (1.3 GiB)
    • Re.Zero.S01E25.1080p.Blu-Ray.10-Bit.Dual-Audio.TrueHD.x265-iAHD.mkv (1.4 GiB)

sff

User
Cool Thanks Man//
Nice! Will you be doing the OVA (Memory Snow) also? Thanks
Thanks @iAHQ you da man ?

RJS

User
Thanks Plz upload Mob Psycho 100 II BD
^^^^^^^ ???
Record of Grancrest War?
I request every Funimation BluRay release ever made to be uploaded by iAHQ ASAP. Now you entitled shits can stop requesting every single upload ???
Thank you IAHQ for you amazing content as always. @PS4Trophies Idk if you can help me but do you think you can seed a torrent for me? it is an old [Prof] torrent of the anime series called C - The Money of Soul and Possibility Control the uploader prof re-uploaded the series again but it wasn't the Funimation version you know it didn't have the English credit in the OP/ED and I'm stuck at 5.1%. I found the torrent on a website called AnimeTosho and I believe it is available in Torrentz as well and the difference between the two torrents is the word [Prof] the Funimation version has the word in the beginning of the torrent title while the re-uploaded version that is not a funimation release has the word prof at the end of the torrent title if that makes sense. So if you can help me or not please let me know? Thank you!
NICE MAN..THANK YOU VERY MUCH @iAHQ! (This is the best release for hevc dual audio of rezero) This and hinamatsuri were the torrents i requested a while ago.. hehe tnx for letting it happen.. cant wait for more..
Thank you so much!!!
PS4Trophies Thank you!
@Marx1234 Unfortunately I couldn't find the same release seeded anywhere but did find another x265 release for you and uploaded it to Google drive. https://drive.google.com/folderview?id=10TYfDd-ko_WNPzTR633JggawmdmBapwT
Thank you so much!
Man I want this release; but also if I'ma re-watch, I'd want it to be the Director's Cut. Still, solid!
Damn i thought that the scy fansub of rezero is compatible to this torrent... but it is not....
They were probably timed to the JP BluRay.
Im gonna try to retime them to match this...
Heres a DDL (SUBS ONLY) of the Fansub of Rezero whom i got from SCY that matches with this release... Subs 1. Full Subs SCY Subs 2. Signs / Songs SCY Notes:I removed the preview part of the subs (since there is no preview part in this release) and carefully retimed it with this torrent... i double check it and so far so good... [DDL-1DRIVE-Expiry:06/26/21](https://twgqx-my.sharepoint.com/:f:/g/personal/br360_pro365app_site/EiG6wUiiyzRAhkyAo9zqU94BfrJ3DY2yLaWU9E1fRgkPpA?e=yarOKb)
thanks for sharing! This version is censored in some ways? you know, US vs JP releases @JamesXd thanks for the SCY subs!!
No it is uncensored.. see ep 5 there is an eyeball rolling... Btw the link i shared is not working anymore... onedrive problems (throttling)
Just picked up the US Limited Edition release on blu-ray and noticed something. There's a green tint on this source. All leave two comparisons below. Although I will say the upside of this encode is that it's a tiny bit sharper than my raw rip, and the size obviously. You notice the sharpness difference when you zoom-in on the comparison. Also, the comparison says "Random encode from the internet" as I didn't know the source when I was making the comparison, I know it was this encode now. https://imgsli.com/MjMyNjE https://imgsli.com/MjMyNjI