[NSBC] Romance Doll / ロマンスドール 2020 [BluRay] [1080p]

Category:
Date:
2020-06-17 02:02 UTC
Submitter:
Seeders:
1
Information:
TlNCQy50bw==
Leechers:
1
File size:
10.9 GiB
Completed:
453
Info hash:
49177ba0d6119080a2e7cd7d582e7cb221aff689
> ### In case there is no seeder, visit [here](https://nosobacrew.wordpress.com/2020/06/17/romance-doll-%e3%83%ad%e3%83%9e%e3%83%b3%e3%82%b9%e3%83%89%e3%83%bc%e3%83%ab-2020/) ![](https://img.topddl.net/images/2020/06/17/main.jpg "") ![](https://img.topddl.net/images/2020/06/17/Romance-Doll-2020-1080p-BluRay-DTS-x264-NSBC.mkv.jpg "") ``` General Unique ID : 251404262299328600433177142734107162161 (0xBD22B31EF120AC6C4DAA19CF7423B631) Complete name : Romance Doll 2020 1080p BluRay DTS x264-NSBC.mkv Format : Matroska Format version : Version 4 File size : 10.9 GiB Duration : 2 h 3 min Overall bit rate : 12.6 Mb/s Movie name : Romance Doll 2020 1080p BluRay DTS x264-NSBC Encoded by : ZeC | NSBC Encoded date : UTC 2020-06-17 01:11:55 Writing application : mkvmerge v29.0.0 ('Like It Or Not') 64-bit Writing library : libebml v1.3.6 + libmatroska v1.4.9 Copyright : NSBC Comment : ZeC | NSBC DATE_RECORDED : 2019 WEBSITE : NSBC.to Video ID : 1 Format : AVC Format/Info : Advanced Video Codec Format profile : High@L4.1 Format settings : CABAC / 5 Ref Frames Format settings, CABAC : Yes Format settings, Reference frames : 5 frames Codec ID : V_MPEG4/ISO/AVC Duration : 2 h 3 min Bit rate : 11.2 Mb/s Width : 1 792 pixels Height : 1 080 pixels Display aspect ratio : 5:3 Frame rate mode : Constant Frame rate : 23.976 (24000/1001) FPS Color space : YUV Chroma subsampling : 4:2:0 Bit depth : 8 bits Scan type : Progressive Bits/(Pixel*Frame) : 0.242 Stream size : 9.61 GiB (88%) Title : [NSBC] Writing library : x264 core 160 r3000+53 e3e4c3e t_mod_New [(8 & 10)-bit@all X86_64] Encoding settings : cabac=1 / ref=5 / deblock=1:-3:-3 / analyse=0x3:0x113 / me=umh / subme=11 / psy=1 / fade_compensate=0.00 / psy_rd=1.00:0.15 / mixed_ref=1 / me_range=16 / chroma_me=1 / trellis=2 / 8x8dct=1 / cqm=0 / deadzone=21,11 / fast_pskip=0 / chroma_qp_offset=-3 / threads=12 / lookahead_threads=1 / sliced_threads=0 / nr=0 / decimate=1 / interlaced=0 / bluray_compat=0 / constrained_intra=0 / fgo=5 / bframes=9 / b_pyramid=2 / b_adapt=1 / b_bias=0 / direct=1 / weightb=1 / open_gop=0 / weightp=1 / keyint=250 / keyint_min=23 / scenecut=40 / intra_refresh=0 / rc_lookahead=30 / rc=abr / mbtree=1 / bitrate=11245 / ratetol=1.0 / qcomp=0.60 / qpmin=0:0:0 / qpmax=69:69:69 / qpstep=4 / ip_ratio=1.40 / aq=3:1.00 / aq-sensitivity=10.00 / aq-factor=1.00:1.00:1.00 / aq2=0 / aq3=0 Default : Yes Forced : No Color range : Limited Color primaries : BT.709 Transfer characteristics : BT.709 Matrix coefficients : BT.709 Audio ID : 2 Format : DTS Format/Info : Digital Theater Systems Codec ID : A_DTS Duration : 2 h 3 min Bit rate mode : Constant Bit rate : 1 509 kb/s Channel(s) : 6 channels Channel layout : C L R Ls Rs LFE Sampling rate : 48.0 kHz Frame rate : 93.750 FPS (512 SPF) Bit depth : 24 bits Compression mode : Lossy Stream size : 1.31 GiB (12%) Title : [NSBC] Language : Japanese Default : Yes Forced : No Menu 00:00:00.000 : en:Chapter 01 00:12:54.732 : en:Chapter 02 00:25:47.921 : en:Chapter 03 00:36:00.950 : en:Chapter 04 00:43:14.133 : en:Chapter 05 00:54:41.319 : en:Chapter 06 01:05:25.963 : en:Chapter 07 01:14:16.285 : en:Chapter 08 01:24:04.539 : en:Chapter 09 01:40:25.185 : en:Chapter 10 01:49:59.759 : en:Chapter 11 02:00:07.241 : en:Chapter 12 02:03:52.425 : en:Chapter 13 ```

File list

  • Romance Doll 2020 1080p BluRay DTS x264-NSBC.mkv (10.9 GiB)
いつもありがとうございました! https://www.fashion-press.net/news/46510 (日本語) https://www.japantimes.co.jp/culture/2020/01/23/films/film-reviews/romance-doll-mature-take-guys-dolls/ (English)

NOSoba (uploader)

User
どういたしまして!