Aura: Koga Maryuin's Last War (2013) [1080p x265 HEVC 10bit BluRay Dual Audio AAC] [Prof]

Category:
Date:
2020-06-12 02:34 UTC
Submitter:
Seeders:
1
Information:
No information.
Leechers:
0
File size:
1.8 GiB
Completed:
344
Info hash:
6ff3ae7eb08d858b01bf6a6f03e36c77bf1960c2
Format : Matroska Format version : Version 4 File size : 1.82 GiB Duration : 1 h 26 min Overall bit rate : 3 029 kb/s Encoded date : UTC 2020-06-12 01:47:08 Writing application : mkvmerge v41.0.0 ('Smarra') 64-bit Writing library : libebml v1.3.9 + libmatroska v1.5.2 Video ID : 1 Format : HEVC Format/Info : High Efficiency Video Coding Format profile : Main 10@L4@Main Codec ID : V_MPEGH/ISO/HEVC Duration : 1 h 26 min Bit rate : 2 250 kb/s Width : 1 920 pixels Height : 1 080 pixels Display aspect ratio : 16:9 Frame rate mode : Constant Frame rate : 23.976 (24000/1001) FPS Color space : YUV Chroma subsampling : 4:2:0 Bit depth : 10 bits Bits/(Pixel*Frame) : 0.045 Stream size : 1.35 GiB (74%) Writing library : x265 3.4+1-7b120308dc64:[Windows][MSVC 1926][64 bit] 10bit Encoding settings : cpuid=1111039 / frame-threads=3 / numa-pools=12 / wpp / no-pmode / no-pme / no-psnr / no-ssim / log-level=2 / input-csp=1 / input-res=1920x1080 / interlace=0 / total-frames=123720 / level-idc=0 / high-tier=1 / uhd-bd=0 / ref=4 / no-allow-non-conformance / no-repeat-headers / annexb / no-aud / no-hrd / info / hash=0 / no-temporal-layers / open-gop / min-keyint=23 / keyint=250 / gop-lookahead=0 / bframes=8 / b-adapt=2 / b-pyramid / bframe-bias=0 / rc-lookahead=80 / lookahead-slices=6 / scenecut=40 / hist-scenecut=0 / radl=0 / no-splice / no-intra-refresh / ctu=64 / min-cu-size=8 / rect / no-amp / max-tu-size=32 / tu-inter-depth=1 / tu-intra-depth=1 / limit-tu=0 / rdoq-level=2 / dynamic-rd=0.00 / no-ssim-rd / signhide / no-tskip / nr-intra=0 / nr-inter=0 / no-constrained-intra / strong-intra-smoothing / max-merge=3 / limit-refs=3 / limit-modes / me=3 / subme=3 / merange=57 / temporal-mvp / no-frame-dup / no-hme / weightp / no-weightb / no-analyze-src-pics / deblock=0:0 / sao / no-sao-non-deblock / rd=4 / selective-sao=4 / no-early-skip / rskip / no-fast-intra / no-tskip-fast / no-cu-lossless / no-b-intra / no-splitrd-skip / rdpenalty=0 / psy-rd=2.00 / psy-rdoq=1.00 / no-rd-refine / no-lossless / cbqpoffs=0 / crqpoffs=0 / rc=crf / crf=18.0 / qcomp=0.60 / qpstep=4 / stats-write=0 / stats-read=0 / ipratio=1.40 / pbratio=1.30 / aq-mode=3 / aq-strength=1.00 / cutree / zone-count=0 / no-strict-cbr / qg-size=32 / no-rc-grain / qpmax=69 / qpmin=0 / no-const-vbv / sar=0 / overscan=0 / videoformat=5 / range=0 / colorprim=2 / transfer=2 / colormatrix=2 / chromaloc=0 / display-window=0 / cll=0,0 / min-luma=0 / max-luma=1023 / log2-max-poc-lsb=8 / vui-timing-info / vui-hrd-info / slices=1 / no-opt-qp-pps / no-opt-ref-list-length-pps / no-multi-pass-opt-rps / scenecut-bias=0.05 / hist-threshold=0.01 / no-opt-cu-delta-qp / no-aq-motion / no-hdr10 / no-hdr10-opt / no-dhdr10-opt / no-idr-recovery-sei / analysis-reuse-level=0 / analysis-save-reuse-level=0 / analysis-load-reuse-level=0 / scale-factor=0 / refine-intra=0 / refine-inter=0 / refine-mv=1 / refine-ctu-distortion=0 / no-limit-sao / ctu-info=0 / no-lowpass-dct / refine-analysis-type=0 / copy-pic=1 / max-ausize-factor=1.0 / no-dynamic-refine / no-single-sei / no-hevc-aq / no-svt / no-field / qp-adaptation-range=1.00 / no-scenecut-aware-qpconformance-window-offsets / right=0 / bottom=0 / decoder-max-rate=0 Default : Yes Forced : No Audio #1 ID : 4 Format : AAC LC Format/Info : Advanced Audio Codec Low Complexity Codec ID : A_AAC-2 Duration : 1 h 22 min Bit rate : 396 kb/s Channel(s) : 2 channels Channel layout : L R Sampling rate : 48.0 kHz Frame rate : 46.875 FPS (1024 SPF) Compression mode : Lossy Delay relative to video : 9 ms Stream size : 235 MiB (13%) Language : English Default : Yes Forced : No Audio #2 ID : 5 Format : AAC LC Format/Info : Advanced Audio Codec Low Complexity Codec ID : A_AAC-2 Duration : 1 h 22 min Bit rate : 394 kb/s Channel(s) : 2 channels Channel layout : L R Sampling rate : 48.0 kHz Frame rate : 46.875 FPS (1024 SPF) Compression mode : Lossy Delay relative to video : 9 ms Stream size : 234 MiB (13%) Language : Japanese Default : No Forced : No Text #1 ID : 2 Format : PGS Muxing mode : zlib Codec ID : S_HDMV/PGS Codec ID/Info : Picture based subtitle format used on BDs/HD-DVDs Duration : 1 h 14 min Bit rate : 4 627 b/s Count of elements : 106 Stream size : 2.47 MiB (0%) Language : English Default : Yes Forced : No Text #2 ID : 3 Format : PGS Muxing mode : zlib Codec ID : S_HDMV/PGS Codec ID/Info : Picture based subtitle format used on BDs/HD-DVDs Duration : 1 h 22 min Bit rate : 55.6 kb/s Count of elements : 1846 Stream size : 32.7 MiB (2%) Language : English Default : No Forced : No Menu 00:00:00.000 : en:Chapter 1 00:03:10.190 : en:Chapter 2 00:14:36.458 : en:Chapter 3 00:22:55.540 : en:Chapter 4 00:30:50.932 : en:Chapter 5 00:40:41.647 : en:Chapter 6 00:46:46.053 : en:Chapter 7 00:51:23.080 : en:Chapter 8 00:58:54.989 : en:Chapter 9 01:03:15.875 : en:Chapter 10 01:15:51.755 : en:Chapter 11 01:17:29.478 : en:Chapter 12 01:22:12.761 : en:Chapter 13 01:22:53.969 : en:Chapter 14

File list

  • Aura - Koga Maryuin's Last War (2013) [1080p x265 HEVC 10bit BluRay Dual Audio AAC] [Prof].mkv (1.8 GiB)

DOS

User
@Prof Thank you very much. Can you please do 'Perfect Blue' & 'Millennium Actress'? I don't find any decent version of these movies.
^ I second this Couldn't find good encodes of these movies either.
^ I third this Please consider it @Prof. I'm waiting for these movies.