[Tess] Sora no Aosa wo Shiru Hito yo - Her Blue Sky [BD 1920x1080 AVC AAC]

Category:
Date:
2020-06-11 21:00 UTC
Submitter:
Seeders:
1
Information:
No information.
Leechers:
0
File size:
3.5 GiB
Completed:
204
Info hash:
4ce4829d14454c4896aa2fd233c4fe66bd150e79
Video Source: [JP BDMV](https://nyaa.si/view/1253623 "https://nyaa.si/view/1253623") Audio Source: PCM -> AAC (qaac @ q127) Subs: English PGS Mediainfo: >General >Unique ID : 159644218821612726100010850284116618597 (0x781A5BAF9113346A19E14E94CB4BAD65) >Complete name : [Tess] Sora no Aosa wo Shiru Hito yo [BD 1920x1080 AVC AAC][DAA1F6C0].mkv >Format : Matroska >Format version : Version 4 >File size : 3.46 GiB >Duration : 1 h 46 min >Overall bit rate : 4 651 kb/s >Encoded date : UTC 2020-06-11 10:18:22 >Writing application : mkvmerge v47.0.0 ('Black Flag') 64-bit >Writing library : libebml v1.3.10 + libmatroska v1.5.2 > >Video >ID : 1 >Format : AVC >Format/Info : Advanced Video Codec >Format profile : High 10@L5.1 >Format settings : CABAC / 12 Ref Frames >Format settings, CABAC : Yes >Format settings, Reference frames : 12 frames >Codec ID : V_MPEG4/ISO/AVC >Duration : 1 h 46 min >Bit rate : 4 390 kb/s >Width : 1 920 pixels >Height : 1 080 pixels >Display aspect ratio : 16:9 >Frame rate mode : Constant >Frame rate : 23.976 (24000/1001) FPS >Color space : YUV >Chroma subsampling : 4:2:0 >Bit depth : 10 bits >Scan type : Progressive >Bits/(Pixel*Frame) : 0.088 >Stream size : 3.27 GiB (94%) >Writing library : x264 core 159 r2999 296494a >Encoding settings : cabac=1 / ref=12 / deblock=1:-2:-2 / analyse=0x3:0x133 / me=umh / subme=11 / psy=1 / psy_rd=1.00:0.00 / mixed_ref=1 / me_range=32 / chroma_me=1 / trellis=2 / 8x8dct=1 / cqm=0 / deadzone=21,11 / fast_pskip=0 / chroma_qp_offset=-2 / threads=24 / lookahead_threads=6 / sliced_threads=0 / slices=4 / nr=0 / decimate=1 / interlaced=0 / bluray_compat=0 / constrained_intra=0 / bframes=8 / b_pyramid=2 / b_adapt=2 / b_bias=0 / direct=3 / weightb=1 / open_gop=0 / weightp=2 / keyint=250 / keyint_min=23 / scenecut=40 / intra_refresh=0 / rc_lookahead=250 / rc=crf / mbtree=1 / crf=15.0 / qcomp=0.60 / qpmin=0 / qpmax=69 / qpstep=4 / vbv_maxrate=720000 / vbv_bufsize=720000 / crf_max=0.0 / nal_hrd=none / filler=0 / ip_ratio=1.40 / aq=3:0.80 >Default : Yes >Forced : No > >Audio >ID : 2 >Format : AAC LC >Format/Info : Advanced Audio Codec Low Complexity >Codec ID : A_AAC-2 >Duration : 1 h 46 min >Bit rate : 249 kb/s >Channel(s) : 2 channels >Channel layout : L R >Sampling rate : 48.0 kHz >Frame rate : 46.875 FPS (1024 SPF) >Compression mode : Lossy >Delay relative to video : 20 ms >Stream size : 189 MiB (5%) >Language : Japanese >Default : Yes >Forced : No > >Text >ID : 3 >ID in the original source medium : 4609 (0x1201) >Format : PGS >Muxing mode : zlib >Codec ID : S_HDMV/PGS >Codec ID/Info : Picture based subtitle format used on BDs/HD-DVDs >Duration : 1 h 40 min >Bit rate : 39.0 kb/s >Count of elements : 2913 >Stream size : 28.0 MiB (1%) >Language : English >Default : Yes >Forced : No >Original source medium : Blu-ray > >Menu >00:00:00.000 : en:Chapter 01 >00:06:43.569 : en:Chapter 02 >00:14:55.185 : en:Chapter 03 >00:20:17.966 : en:Chapter 04 >00:30:31.329 : en:Chapter 05 >00:36:36.110 : en:Chapter 06 >00:42:20.162 : en:Chapter 07 >00:46:21.862 : en:Chapter 08 >00:52:06.289 : en:Chapter 09 >00:59:33.278 : en:Chapter 10 >01:09:51.478 : en:Chapter 11 >01:16:57.112 : en:Chapter 12 >01:21:27.382 : en:Chapter 13 >01:33:45.286 : en:Chapter 14 >01:37:40.813 : en:Chapter 15 >01:41:36.840 : en:Chapter 16 > >

File list

  • [Tess] Sora no Aosa wo Shiru Hito yo [BD 1920x1080 AVC AAC][DAA1F6C0].mkv (3.5 GiB)
>Subs: English PGS Go fuck yourself