Weathering.with.You.2019.JAPANESE.2160p.BluRay.x265.10bit.SDR.DTS-HD.MA.5.1-SWTYBLZ

Category:
Date:
2020-06-09 16:28 UTC
Submitter:
Seeders:
0
Information:
No information.
Leechers:
0
File size:
23.3 GiB
Completed:
149
Info hash:
cf22af8d65d7b173ba22639ed51ccc997b0ef703
Video ID : 1 Format : HEVC Format/Info : High Efficiency Video Coding Format profile : Main 10@L5.1@High Codec ID : V_MPEGH/ISO/HEVC Duration : 1 h 52 min Bit rate : 25.3 Mb/s Width : 3 840 pixels Height : 2 160 pixels Display aspect ratio : 16:9 Frame rate mode : Constant Frame rate : 23.976 (24000/1001) FPS Color space : YUV Chroma subsampling : 4:2:0 Bit depth : 10 bits Bits/(Pixel*Frame) : 0.127 Stream size : 19.9 GiB (86%) Title : Weathering.with.You.2019.JAPANESE.2160p.BluRay.x265.10bit.SDR.DTS-HD.MA.5.1-SWTYBLZ Writing library : x265 3.0+1-ed72af837053:[Windows][GCC 8.2.0][64 bit] 10bit Encoding settings : cpuid=1111039 / frame-threads=6 / numa-pools=40 / wpp / no-pmode / no-pme / no-psnr / no-ssim / log-level=2 / input-csp=1 / input-res=3840x2160 / interlace=0 / total-frames=161448 / level-idc=51 / high-tier=1 / uhd-bd=0 / ref=3 / no-allow-non-conformance / repeat-headers / annexb / aud / hrd / info / hash=0 / no-temporal-layers / no-open-gop / min-keyint=1 / keyint=24 / gop-lookahead=0 / bframes=6 / b-adapt=2 / b-pyramid / bframe-bias=0 / rc-lookahead=25 / lookahead-slices=4 / scenecut=40 / radl=0 / no-splice / no-intra-refresh / ctu=64 / min-cu-size=8 / no-rect / no-amp / max-tu-size=32 / tu-inter-depth=1 / tu-intra-depth=1 / limit-tu=0 / rdoq-level=0 / dynamic-rd=0.00 / no-ssim-rd / signhide / no-tskip / nr-intra=0 / nr-inter=0 / no-constrained-intra / strong-intra-smoothing / max-merge=2 / limit-refs=3 / no-limit-modes / me=1 / subme=2 / merange=57 / temporal-mvp / weightp / no-weightb / no-analyze-src-pics / deblock=1:1 / no-sao / no-sao-non-deblock / rd=3 / no-early-skip / rskip / no-fast-intra / no-tskip-fast / no-cu-lossless / no-b-intra / no-splitrd-skip / rdpenalty=0 / psy-rd=0.40 / psy-rdoq=0.00 / no-rd-refine / no-lossless / cbqpoffs=0 / crqpoffs=0 / rc=crf / crf=14.0 / qcomp=0.60 / qpstep=4 / stats-write=0 / stats-read=0 / vbv-maxrate=160000 / vbv-bufsize=160000 / vbv-init=0.9 / crf-max=0.0 / crf-min=0.0 / ipratio=1.40 / pbratio=1.30 / aq-mode=1 / aq-strength=0.40 / cutree / zone-count=0 / no-strict-cbr / qg-size=32 / no-rc-grain / qpmax=69 / qpmin=0 / no-const-vbv / sar=1 / overscan=0 / videoformat=5 / range=0 / colorprim=2 / transfer=2 / colormatrix=2 / chromaloc=0 / display-window=0 / max-cll=0,0 / min-luma=0 / max-luma=1023 / log2-max-poc-lsb=8 / vui-timing-info / vui-hrd-info / slices=1 / opt-qp-pps / opt-ref-list-length-pps / no-multi-pass-opt-rps / scenecut-bias=0.05 / no-opt-cu-delta-qp / no-aq-motion / no-hdr / no-hdr-opt / no-dhdr10-opt / no-idr-recovery-sei / analysis-reuse-level=5 / scale-factor=0 / refine-intra=0 / refine-inter=0 / refine-mv=0 / refine-ctu-distortion=0 / no-limit-sao / ctu-info=0 / no-lowpass-dct / refine-analysis-type=0 / copy-pic=1 / max-ausize-factor=1.0 / no-dynamic-refine / no-single-sei / no-hevc-aq / qp-adaptation-range=1.00 Default : Yes Forced : No Audio #1 ID : 2 ID in the original source medium : 4352 (0x1100) Format : DTS XLL Format/Info : Digital Theater Systems Commercial name : DTS-HD Master Audio Codec ID : A_DTS Duration : 1 h 52 min Bit rate mode : Variable Bit rate : 3 557 kb/s Channel(s) : 6 channels Channel layout : C L R Ls Rs LFE Sampling rate : 48.0 kHz Frame rate : 93.750 FPS (512 SPF) Bit depth : 24 bits Compression mode : Lossless Stream size : 2.79 GiB (12%) Title : Weathering.with.You.2019.JAPANESE.2160p.BluRay.x265.10bit.SDR.DTS-HD.MA.5.1-SWTYBLZ Language : Japanese Default : Yes Forced : No Original source medium : Blu-ray Audio #2 ID : 3 Format : AC-3 Format/Info : Audio Coding 3 Commercial name : Dolby Digital Codec ID : A_AC3 Duration : 1 h 52 min Bit rate mode : Constant Bit rate : 640 kb/s Channel(s) : 6 channels Channel layout : L R C LFE Ls Rs Sampling rate : 48.0 kHz Frame rate : 31.250 FPS (1536 SPF) Compression mode : Lossy Stream size : 514 MiB (2%) Title : Weathering.with.You.2019.JAPANESE.2160p.BluRay.x265.10bit.SDR.DTS-HD.MA.5.1-SWTYBLZ Language : Japanese Service kind : Complete Main Default : No Forced : No Text #1 ID : 4 Format : UTF-8 Codec ID : S_TEXT/UTF8 Codec ID/Info : UTF-8 Plain Text Duration : 1 h 51 min Bit rate : 65 b/s Count of elements : 1703 Stream size : 53.6 KiB (0%) Title : English-SRT Language : English Default : Yes Forced : No Text #2 ID : 5 ID in the original source medium : 4768 (0x12A0) Format : PGS Muxing mode : zlib Codec ID : S_HDMV/PGS Codec ID/Info : Picture based subtitle format used on BDs/HD-DVDs Duration : 1 h 51 min Bit rate : 42.8 kb/s Count of elements : 3506 Stream size : 34.1 MiB (0%) Title : Japanese-PGS Language : Japanese Default : No Forced : No Original source medium : Blu-ray Text #3 ID : 6 ID in the original source medium : 4769 (0x12A1) Format : PGS Muxing mode : zlib Codec ID : S_HDMV/PGS Codec ID/Info : Picture based subtitle format used on BDs/HD-DVDs Duration : 1 h 51 min Bit rate : 33.4 kb/s Count of elements : 3134 Stream size : 26.5 MiB (0%) Title : English-PGS Language : English Default : No Forced : No Original source medium : Blu-ray Text #4 ID : 7 ID in the original source medium : 4770 (0x12A2) Format : PGS Muxing mode : zlib Codec ID : S_HDMV/PGS Codec ID/Info : Picture based subtitle format used on BDs/HD-DVDs Duration : 1 h 50 min Bit rate : 30.6 kb/s Count of elements : 3462 Stream size : 24.3 MiB (0%) Title : Chinese-PGS Language : Chinese Default : No Forced : No Original source medium : Blu-ray Menu 00:00:00.000 : en:Chapter 01 00:03:52.232 : en:Chapter 02 00:07:13.057 : en:Chapter 03 00:11:51.293 : en:Chapter 04 00:17:26.795 : en:Chapter 05 00:19:46.351 : en:Chapter 06 00:22:25.260 : en:Chapter 07 00:26:07.691 : en:Chapter 08 00:30:07.972 : en:Chapter 09 00:34:27.982 : en:Chapter 10 00:38:29.682 : en:Chapter 11 00:41:36.243 : en:Chapter 12 00:44:05.893 : en:Chapter 13 00:47:59.126 : en:Chapter 14 00:52:11.253 : en:Chapter 15 00:55:55.852 : en:Chapter 16 00:58:46.773 : en:Chapter 17 01:01:42.532 : en:Chapter 18 01:05:18.247 : en:Chapter 19 01:08:55.923 : en:Chapter 20 01:13:53.178 : en:Chapter 21 01:16:58.322 : en:Chapter 22 01:19:57.584 : en:Chapter 23 01:23:15.573 : en:Chapter 24 01:25:48.226 : en:Chapter 25 01:28:51.117 : en:Chapter 26 01:33:02.868 : en:Chapter 27 01:38:32.907 : en:Chapter 28 01:43:29.244 : en:Chapter 29 01:47:40.579 : en:Chapter 30 01:52:12.600 : en:Chapter 31

File list